<?xml version="1.0" standalone="no"?>
<!DOCTYPE svg PUBLIC "-//W3C//DTD SVG 1.1//EN" "http://www.w3.org/Graphics/SVG/1.1/DTD/svg11.dtd" >
<svg xmlns="http://www.w3.org/2000/svg">
<metadata>
<json>
{
	"fontFamily": "ETdashboard",
	"majorVersion": 1,
	"minorVersion": 0,
	"version": "Version 1.0",
	"fontId": "ETdashboard",
	"psName": "ETdashboard",
	"subFamily": "Regular",
	"fullName": "ETdashboard",
	"description": "Font generated by IcoMoon."
}
</json>
</metadata>
<defs>
<font id="ETdashboard" horiz-adv-x="1024">
<font-face units-per-em="1024" ascent="960" descent="-64" />
<missing-glyph horiz-adv-x="1024" />
<glyph unicode="&#x20;" d="" horiz-adv-x="512" />
<glyph unicode="&#xe600;" d="M0 908.992v-922.048c0-23.424 24.64-38.656 45.568-28.16l192.96 96.512c10.752 5.312 17.472 16.256 17.472 28.16v465.92c0 12.224 12.864 20.224 23.808 14.72l218.816-109.376c8.448-4.224 18.304-4.224 26.752 0l218.816 109.376c10.944 5.44 23.808-2.496 23.808-14.72v-465.856c0-11.904 6.72-22.848 17.408-28.16l192.96-96.512c20.992-10.496 45.632 4.736 45.632 28.16v921.984c0 23.424-24.64 38.656-45.568 28.16l-466.432-233.152-466.432 233.216c-20.928 10.432-45.568-4.8-45.568-28.224z" />
<glyph unicode="&#xe601;" d="M896 256v-192h-192v192h192zM963.84 384h-325.376c-34.496 0-62.464-27.968-62.464-62.464v-325.376c0-33.216 26.944-60.16 60.16-60.16h259.84c70.72 0 128 57.28 128 128v259.84c0 33.216-26.944 60.16-60.16 60.16v0zM0 323.84v-259.84c0-70.72 57.28-128 128-128h259.84c33.216 0 60.16 26.944 60.16 60.16v325.376c0 34.496-27.968 62.464-62.464 62.464h-325.376c-33.216 0-60.16-26.944-60.16-60.16zM1024 572.16v259.84c0 70.72-57.28 128-128 128h-259.84c-33.216 0-60.16-26.944-60.16-60.16v-325.376c0-34.496 27.968-62.464 62.464-62.464h325.376c33.216 0 60.16 26.944 60.16 60.16zM387.84 960h-259.84c-70.72 0-128-57.28-128-128v-259.84c0-33.216 26.944-60.16 60.16-60.16h325.376c34.496 0 62.464 27.968 62.464 62.464v325.376c0 33.216-26.944 60.16-60.16 60.16z" />
<glyph unicode="&#xe602;" d="M896 960h-835.968c-33.152 0-60.032-28.672-60.032-64s26.88-64 60.032-64h456c33.088 0 59.968-28.672 59.968-64s-26.88-64-60.032-64h-260.608c-35.008 0-63.36-28.352-63.36-63.36v-1.28c0-35.008-28.352-63.36-63.36-63.36h-68.608c-33.152 0-60.032-28.672-60.032-64s26.88-64 60.032-64h328c33.088 0 59.968-28.672 59.968-64s-26.88-64-60.032-64h-132.608c-35.008 0-63.36-28.352-63.36-63.36v-65.28c0-35.008-28.352-63.36-63.36-63.36h-68.608c-33.152 0-60.032-28.672-60.032-64s26.88-64 60.032-64h835.968c70.72 0 128 57.28 128 128v704c0 70.72-57.28 128-128 128z" />
<glyph unicode="&#xe603;" d="M576 480v-320c0-17.664-14.336-32-32-32h-64c-17.664 0-32 14.336-32 32v320c0 17.664 14.336 32 32 32h64c17.664 0 32-14.336 32-32zM576 736v-64c0-17.664-14.336-32-32-32h-64c-17.664 0-32 14.336-32 32v64c0 17.664 14.336 32 32 32h64c17.664 0 32-14.336 32-32z" />
<glyph unicode="&#xe604;" d="M961.024 64h-898.048c-34.752 0-62.976-28.672-62.976-64s28.224-64 62.976-64h897.984c34.816 0 63.040 28.672 63.040 64s-28.224 64-62.976 64zM896 960h-768c-70.72 0-128-57.28-128-128v-579.52c0-33.408 27.072-60.48 60.48-60.48h902.848c33.536 0 60.672 27.136 60.672 60.672v579.328c0 70.72-57.28 128-128 128z" />
<glyph unicode="&#xe605;" d="M1021.184 481.536c-12.736 75.264-72.768 137.728-147.328 153.92-65.152 14.144-124.928-5.824-168.256-43.968l-260.8 144.832c1.728 10.368 3.2 20.8 3.2 31.68 0 117.824-106.176 210.88-228.096 188.736-75.456-13.76-137.536-75.008-152.192-150.336-19.328-99.776 38.72-188.224 124.288-218.624v-279.488c-85.568-30.4-143.616-118.848-124.288-218.624 14.592-75.328 76.672-136.576 152.192-150.336 121.92-22.208 228.096 70.848 228.096 188.672 0 10.88-1.472 21.312-3.2 31.68l260.736 144.832c33.856-29.824 77.76-48.512 126.464-48.512 116.992 0 209.6 104.704 189.184 225.536zM403.84 283.328c0 0-23.808-5.312-50.176 9.088-0.256 0.128-0.448 0.32-0.64 0.448-17.344 9.6-33.024 25.408-33.024 45.12v209.984c0 25.984 8 41.024 32.576 54.976 20.16 11.456 38.656 13.056 60.416 4.544l206.464-114.688c9.984-6.912 18.752-18.368 20.544-44.8 0-3.648 0.768-7.040 1.088-10.624-0.32-9.152-4.416-22.464-20.416-33.6l-216.832-120.448z" />
<glyph unicode="&#xe606;" d="M512 960c-247.424 0-448-200.576-448-448 0-384 448-576 448-576s448 186.688 448 576c0 247.424-200.576 448-448 448zM512 320c-106.048 0-192 85.952-192 192s85.952 192 192 192 192-85.952 192-192-85.952-192-192-192z" />
<glyph unicode="&#xe607;" d="M960 768c-35.392 0-64-28.672-64-64v-576c0-35.328-28.672-64-64-64h-576c-35.392 0-64-28.608-64-64s28.608-64 64-64h576c105.856 0 192 86.144 192 192v576c0 35.328-28.608 64-64 64zM128 192h512c70.72 0 128 57.28 128 128v512c0 70.72-57.28 128-128 128h-512c-70.72 0-128-57.28-128-128v-512c0-70.72 57.28-128 128-128z" />
<glyph unicode="&#xe608;" d="M928 896h-832c-96 0-96-84.416-96-112.128v-548.48c0-27.712 0-112.128 96-112.128h215.168l178.24-177.92c6.208-6.208 14.4-9.344 22.592-9.344s16.384 3.136 22.592 9.344l178.24 177.92h215.168c96 0 96 84.416 96 112.128v548.48c0 27.712 0 112.128-96 112.128z" />
<glyph unicode="&#xe609;" d="M641.152 64c-16.704 0-33.344 6.4-46.080 19.136-25.472 25.536-25.472 66.88 0 92.416l271.616 272.448-271.616 272.448c-25.472 25.536-25.472 66.88 0 92.416s66.688 25.536 92.16 0l317.696-318.656c25.472-25.536 25.472-66.88 0-92.416l-317.696-318.656c-12.736-12.736-29.376-19.136-46.080-19.136zM382.848 64c16.704 0 33.344 6.4 46.080 19.136 25.472 25.536 25.472 66.88 0 92.416l-271.616 272.448 271.616 272.448c25.472 25.536 25.472 66.88 0 92.416s-66.688 25.536-92.16 0l-317.696-318.656c-25.472-25.536-25.472-66.88 0-92.416l317.696-318.656c12.736-12.736 29.376-19.136 46.080-19.136z" />
<glyph unicode="&#xe60a;" d="M896 960h-574.592c-36.096 0-65.408-29.312-65.408-65.408v-893.12c0-36.16 29.312-65.472 65.408-65.472h574.592c70.72 0 128 57.28 128 128v768c0 70.72-57.28 128-128 128zM64 960c-35.328 0-64-28.672-64-64v-896c0-35.328 28.672-64 64-64s64 28.672 64 64v896c0 35.328-28.672 64-64 64z" />
<glyph unicode="&#xe60b;" d="M896 960h-768c-70.72 0-128-57.28-128-128v-768c0-70.72 57.28-128 128-128h768c70.72 0 128 57.28 128 128v768c0 70.72-57.28 128-128 128zM832 448c0-35.328-28.672-64-64-64h-192v-192c0-35.328-28.672-64-64-64v0c-35.328 0-64 28.672-64 64v192h-192c-35.328 0-64 28.672-64 64v0c0 35.328 28.672 64 64 64h192v192c0 35.328 28.672 64 64 64v0c35.328 0 64-28.672 64-64v-192h192c35.328 0 64-28.672 64-64v0z" />
<glyph unicode="&#xe60c;" d="M874.048 267.008l-180.992 180.992 180.992 180.992c24.96 24.96 25.024 65.536 0 90.496l-90.496 90.496c-25.024 25.024-65.536 25.024-90.496 0l-181.056-180.928-180.992 180.992c-24.96 24.96-65.536 25.024-90.496 0l-90.56-90.496c-25.024-25.024-25.024-65.536 0-90.496l180.992-181.056-180.992-180.992c-25.024-25.024-24.96-65.536 0-90.496l90.496-90.496c25.024-25.024 65.536-25.024 90.496 0l181.056 180.928 180.992-180.992c25.024-25.024 65.536-24.96 90.496 0l90.496 90.496c25.024 25.024 25.024 65.536 0.064 90.56z" />
<glyph unicode="&#xe60d;" d="M1008.96 606.144l-566.016-559.296c-20.032-19.776-52.48-19.776-72.448 0l-355.456 351.232c-20.032 19.776-20.032 51.84 0 71.616l108.672 107.392c20.032 19.776 52.48 19.776 72.448 0l210.56-208.064 421.12 416.128c20.032 19.776 52.48 19.776 72.448 0l108.672-107.392c20.032-19.776 20.032-51.84 0-71.616z" />
<glyph unicode="&#xe60e;" d="M1023.808 587.328c0 1.024 0.192 1.856 0.192 2.816h-0.512c-2.688 157.056-130.112 297.024-287.488 297.024-91.008 0-171.2-47.616-224-117.504-52.8 69.888-132.992 117.504-224 117.504-157.376 0-284.8-139.968-287.488-297.024h-0.512c0-0.96 0.192-1.856 0.192-2.816 0-0.704-0.192-1.408-0.192-2.176 0-4.416 1.088-7.744 1.28-11.968 14.016-400.32 506.688-564.352 506.688-564.352s499.84 163.904 514.624 563.712c0.256 4.48 1.408 8 1.408 12.608 0 0.768-0.192 1.472-0.192 2.176z" />
<glyph unicode="&#xe60f;" d="M128 576h768c35.328 0 64-28.672 64-64v-128c0-35.328-28.672-64-64-64h-768c-35.328 0-64 28.672-64 64v128c0 35.328 28.672 64 64 64z" />
<glyph unicode="&#xe610;" d="M896 576h-256v256c0 35.328-28.672 64-64 64h-128c-35.328 0-64-28.672-64-64v-256h-256c-35.328 0-64-28.672-64-64v-128c0-35.328 28.672-64 64-64h256v-256c0-35.328 28.672-64 64-64h128c35.328 0 64 28.672 64 64v256h256c35.328 0 64 28.672 64 64v128c0 35.328-28.672 64-64 64z" />
<glyph unicode="&#xe611;" d="M256 512v-512c0-35.328-28.672-64-64-64h-128c-35.328 0-64 28.672-64 64v512c0 35.328 28.672 64 64 64h128c35.328 0 64-28.672 64-64zM640 896v-896c0-35.328-28.672-64-64-64h-128c-35.328 0-64 28.672-64 64v896c0 35.328 28.672 64 64 64h128c35.328 0 64-28.672 64-64zM1024 640v-640c0-35.328-28.672-64-64-64h-128c-35.328 0-64 28.672-64 64v640c0 35.328 28.672 64 64 64h128c35.328 0 64-28.672 64-64z" />
<glyph unicode="&#xe612;" d="M272.896 960h-29.12c-134.592 0-243.776-109.184-243.776-243.776v-536.384c0-134.656 109.184-243.84 243.776-243.84h44.224c-65.088 157.376-98.752 327.488-98.752 533.056 0 187.648 28.352 345.408 83.648 490.944zM780.16 960h-340.864c-63.232-142.656-97.984-299.136-97.984-490.944 0-210.88 41.792-379.968 115.392-533.056h323.456c134.656 0 243.84 109.184 243.84 243.776v536.448c0 134.592-109.184 243.776-243.84 243.776zM653.44 9.344c-8.384-6.528-17.792-9.344-27.2-9.344-11.264 0-22.528 5.632-31.872 17.792-95.68 130.432-146.368 254.272-146.368 431.616 0 176.384 50.688 299.264 147.328 428.736 9.344 12.224 21.568 17.856 32.832 17.856 9.344 0 17.792-2.816 25.344-8.448 12.224-7.488 20.672-18.752 20.672-31.936 0-6.592-2.816-14.080-8.448-21.568-84.48-112.576-134.208-223.296-134.208-384.64 0-163.264 50.688-275.84 133.248-386.56 5.632-8.448 8.448-15.936 8.448-22.464-0.064-13.184-8.512-23.488-19.776-31.040zM794.816 172.992c4.032-6.016 6.016-11.392 6.016-16.064 0-9.408-6.016-16.768-14.080-22.144-6.016-4.672-12.736-6.656-19.456-6.656-8.064 0-16.064 4.032-22.784 12.736-68.352 93.12-104.512 181.568-104.512 308.224 0 125.952 36.16 213.76 105.216 306.24 6.72 8.704 15.424 12.736 23.488 12.736 6.72 0 12.736-1.984 18.112-6.016 8.704-5.376 14.72-13.44 14.72-22.784 0-4.672-1.984-10.048-6.016-15.424-60.288-80.448-95.808-159.488-95.808-274.752-0.064-116.608 36.096-197.056 95.104-276.096z" />
<glyph unicode="&#xe613;" d="M0 631.36v-369.536l320 184.768zM576 896c-171.968 0-320-97.6-395.072-239.808l110.528-63.808c52.8 103.936 159.936 175.616 284.544 175.616 176.704 0 320-143.296 320-320s-143.296-320-320-320c-123.712 0-230.080 70.784-283.264 173.504l-110.656-63.872c75.456-140.992 222.848-237.632 393.92-237.632 247.424 0 448 200.576 448 448s-200.576 448-448 448zM576 256c106.048 0 192 85.952 192 192s-85.952 192-192 192c-77.248 0-142.72-46.144-173.12-112l141.12-81.408-140.096-80.896c30.784-64.64 95.744-109.696 172.096-109.696z" />
<glyph unicode="&#xe614;" d="M45.568 705.664l445.376-224.896c13.248-6.656 28.864-6.656 42.112 0l445.376 224.896c10.048 5.056 10.048 19.392 0 24.448l-445.376 224.896c-13.248 6.656-28.864 6.656-42.112 0l-445.376-224.896c-10.048-5.056-10.048-19.392 0-24.448zM45.568 435.776l445.376-224.896c13.248-6.656 28.864-6.656 42.112 0l445.376 224.896c10.048 5.056 10.048 19.392 0 24.448l-88.384 44.608c-13.248 6.656-28.864 6.656-42.112 0l-314.88-158.976c-13.248-6.656-28.864-6.656-42.112 0l-314.944 158.976c-13.248 6.656-28.864 6.656-42.112 0l-88.32-44.608c-10.048-5.056-10.048-19.392 0-24.448zM978.432 190.336l-88.384 44.608c-13.248 6.656-28.864 6.656-42.112 0l-314.944-159.040c-13.248-6.656-28.864-6.656-42.112 0l-314.88 159.040c-13.248 6.656-28.864 6.656-42.112 0l-88.384-44.608c-10.048-5.056-10.048-19.392 0-24.448l445.376-224.896c13.248-6.656 28.864-6.656 42.112 0l445.376 224.896c10.112 5.056 10.112 19.392 0.064 24.448z" />
<glyph unicode="&#xe615;" d="M1024 660.544v107.456c0 35.328-28.672 64-64 64h-896c-35.328 0-64-28.672-64-64v-107.456l512-204.8 512 204.8zM512 351.168l-512 204.8v-427.968c0-35.328 28.672-64 64-64h896c35.328 0 64 28.672 64 64v428.032l-512-204.864z" />
<glyph unicode="&#xe616;" d="M511.936 960c-282.688 0-511.936-229.248-511.936-512 0-226.176 146.688-418.112 350.144-485.824 25.6-4.672 34.944 11.136 34.944 24.704 0 12.16-0.448 44.352-0.704 87.104-142.4-30.912-172.48 68.608-172.48 68.608-23.296 59.136-56.832 74.88-56.832 74.88-46.464 31.744 3.52 31.104 3.52 31.104 51.392-3.648 78.4-52.736 78.4-52.736 45.696-78.272 119.808-55.68 148.992-42.56 4.672 33.088 17.856 55.68 32.512 68.416-113.664 12.928-233.216 56.832-233.216 253.056 0 55.872 19.968 101.568 52.672 137.408-5.184 12.928-22.784 65.024 5.12 135.488 0 0 43.008 13.76 140.8-52.48 40.832 11.328 84.608 17.024 128.128 17.216 43.456-0.192 87.296-5.888 128.192-17.216 97.728 66.24 140.672 52.48 140.672 52.48 27.904-70.464 10.368-122.56 5.12-135.488 32.832-35.776 52.608-81.472 52.608-137.408 0-196.672-119.68-240-233.792-252.672 18.368-15.808 34.752-47.040 34.752-94.784 0-68.416-0.64-123.648-0.64-140.48 0-13.696 9.216-29.632 35.2-24.64 203.328 67.904 349.888 259.648 349.888 485.824 0 282.752-229.248 512-512.064 512z" />
<glyph unicode="&#xe617;" d="M1013.632 178.176c16 13.568 12.288 33.024-3.264 35.328-16.448 2.432-27.904-9.856-41.856-23.552-21.696-21.312-41.472-33.728-62.272-33.728-32 0.256-50.368 24.064-50.368 63.68 0 66.752 45.248 267.904 45.248 340.736 0 77.504-34.56 119.68-94.528 120.192h-0.896c-87.552 0-155.84-99.392-221.12-303.808-6.016-18.752-12.544-40.384-18.112-59.072l-9.152-30.72 2.752 31.936c6.080 71.232 10.24 140.544 12.416 205.952 3.264 98.816-10.112 162.432-40.832 194.432-16.576 17.28-38.528 25.728-67.072 25.984h-0.832c-107.136 0-158.528-180.736-195.904-308.288-8.576-29.248-23.488-86.4-36.672-138.24 8.064 87.168 22.656 242.24 21.568 331.392-1.344 108.992-37.632 157.824-117.696 158.464h-0.96c-42.752 0-72.384-21.248-89.792-39.104-27.84-28.608-45.248-70.4-44.224-106.56 0.576-21.888 14.016-41.472 24.256-41.472 6.656 0 10.368 8.896 11.904 14.144 24.768 81.856 56.832 121.664 97.92 121.664 17.088-0.128 29.76-5.184 39.232-15.36 32.128-34.496 26.304-127.552 15.68-296.512-3.328-54.464-7.232-116.16-10.496-186.368-0.576-12.032-1.344-23.68-2.048-34.752-3.136-48.768-5.632-87.232 12.864-90.112 24.064-3.776 39.744 6.016 47.744 29.824 11.904 35.328 38.528 131.904 90.112 308.288 49.472 169.344 86.848 230.976 134.656 230.976 55.232 0 59.392-94.848 49.216-295.040-2.176-42.432-5.056-90.496-7.232-142.784-0.32-7.36-0.64-14.464-1.024-21.312-2.112-43.328-3.776-77.504 8.576-90.56 3.84-4.096 9.088-6.080 16.064-6.144 23.936 0 31.168 20.992 43.072 55.808 2.112 6.144 4.352 12.672 6.848 19.584 82.048 226.368 142.72 422.784 224.192 422.784 24.448 0 43.456-19.84 43.456-58.56 0-89.344-43.648-261.952-43.648-349.44 0-31.36 9.024-59.52 26.048-79.296 17.536-20.288 41.984-31.104 70.784-31.36h0.64c27.264 0 51.072 11.328 79.488 37.76 11.904 11.072 22.848 22.72 35.264 33.216z" />
<glyph unicode="&#xe618;" d="M302.208 292.288c51.008 0 94.080 61.504 94.080 134.272s-43.072 134.272-94.080 134.272-94.080-61.504-94.080-134.272 43.072-134.272 94.080-134.272zM0 56.64l576-120.64v1024l-576-109.888v-793.472zM302.208 656.832c104.832 0 190.080-103.296 190.080-230.272s-85.248-230.272-190.080-230.272-190.080 103.296-190.080 230.272 85.248 230.272 190.080 230.272zM769.6 443.392l189.248 196.608h-254.848v-144.832l0.64 0.832zM808.192 345.024c-9.344-9.728-21.952-14.72-34.624-14.72-10.688 0-21.376 3.52-30.208 10.688l-39.36 32v-244.992h264.512c30.656 0 55.488 20.032 55.488 44.8v396.48l-215.808-224.256z" />
<glyph unicode="&#xe619;" d="M960 640h-64v256c0 35.328-28.672 64-64 64h-640c-35.328 0-64-28.672-64-64v-256h-64c-35.328 0-64-28.672-64-64v-320c0-35.328 28.672-64 64-64h64v-192c0-35.328 28.672-64 64-64h640c35.328 0 64 28.672 64 64v192h64c35.328 0 64 28.672 64 64v320c0 35.328-28.672 64-64 64zM192 896h640v-256h-640v256zM768 512v-64h-64v64h64zM128 448v64h64v-64h-64zM832 0h-640v320h640v-320zM896 448h-64v64h64v-64z" />
<glyph unicode="&#xe61a;" d="M432.896 604.8c-15.168 7.168-31.744 11.456-48.896 14.272v-363.072h64v368.96c-5.376-6.464-10.432-13.184-15.104-20.16zM0 378.88c0-46.4 26.048-86.336 64-107.2v214.4c-37.952-20.864-64-60.8-64-107.2zM256 592.576v-336.576h64v362.688c-23.296-4.48-44.8-13.632-64-26.112zM178.56 487.872c-15.296 7.808-32.384 12.416-50.56 13.248v-245.12h64v265.536c-5.44-10.688-10.176-21.888-13.44-33.664zM894.272 515.392c-17.408 0-33.984-3.584-49.152-9.792-12.16 112.96-107.712 200.896-223.936 200.896-39.616 0.064-76.864-10.24-109.184-28.224v-422.272h382.272c71.68 0 129.728 58.048 129.728 129.728 0 71.616-58.048 129.664-129.728 129.664z" />
<glyph unicode="&#xe61b;" d="M150.848 438.4c-54.784 0-101.76 58.88-106.944 133.952-5.376 77.696 36.16 144.064 92.608 147.968 0.064 0 0.192 0 0.256 0 59.776 0 106.624-58.752 111.872-133.76 5.376-77.696-36.16-144.064-92.608-147.968l-5.184-0.192zM377.984 677.632c-56.512 1.408-100.992 65.856-99.072 143.68 1.856 76.48 48.576 138.688 104.128 138.688 58.432-1.408 102.976-65.856 101.056-143.68-1.92-76.48-48.704-138.688-104.32-138.688h-1.792zM664 660.672c-6.848 0-13.696 0.96-20.224 2.752-54.464 15.168-81.856 88.512-60.928 163.584 17.92 64.448 66.944 111.232 116.544 111.232 6.848 0 13.696-0.96 20.224-2.752 54.528-15.168 81.856-88.576 60.992-163.584-18.048-64.448-67.072-111.232-116.608-111.232v0zM877.44 377.6c-56.768 0-103.616 59.328-104.384 132.352-0.768 73.6 45.12 134.016 102.336 134.656 57.536 0 104.384-59.392 105.216-132.416 0.768-73.6-45.12-133.952-102.336-134.592h-0.832zM750.4-64c-32.64 0-71.104 7.168-111.808 14.784-50.624 9.472-108.096 20.16-169.152 20.16-25.856 0-51.2-1.984-75.2-5.888-50.56-8.192-91.2-12.16-124.352-12.16-95.424 0-139.84 30.912-158.592 110.272-25.728 109.056 17.728 164.672 107.008 229.12 53.632 38.72 91.904 84.992 125.76 125.824 52.352 63.232 93.632 113.152 168.96 113.152 71.936 0 98.496-34.368 146.88-96.768 34.304-44.352 77.12-99.456 151.232-159.616 68.672-55.744 102.336-118.4 97.472-181.12-5.312-68.416-53.952-119.872-94.016-143.232-17.024-9.856-37.504-14.528-64.192-14.528v0z" />
<glyph unicode="&#xe61c;" d="M556.224 664.512c-90.112 0-172.544-33.088-236.224-87.552v319.040c0 35.328-28.608 64-64 64s-64-28.672-64-64v-595.776c0-200.832 163.392-364.224 364.224-364.224s364.224 163.392 364.224 364.224-163.328 364.288-364.224 364.288zM556.224 64c-130.24 0-236.224 105.984-236.224 236.224s105.984 236.224 236.224 236.224 236.224-105.984 236.224-236.224-105.92-236.224-236.224-236.224z" />
<glyph unicode="&#xe61d;" d="M320 576h64v-256h-64v256zM192 576h-128v-256h192v384h-64v-128zM192 384h-64v128h64v-128zM512 576h-64v-256h128v-64h-128v-64h192v384h-128zM576 384h-64v128h64v-128zM832 576h-128v-256h128v-64h-128v-64h192v384h-64zM832 384h-64v128h64v-128zM320 704h64v-64h-64v64z" />
<glyph unicode="&#xe61e;" d="M305.472 703.040c7.488 0 15.232 6.016 15.232 13.376 0 0.064 0 155.584 0 155.584 0 25.28 14.912 60.032 14.4 59.52l-254.080-248.768c0 0 29.696 20.288 78.976 20.288h145.472zM800 864h-160c-4.16 28.352-28.032 69.76-50.304 78.72-59.264 23.872-117.76 18.112-141.248 11.52-18.688-5.248-39.36-15.936-50.88-32.448-7.744-11.008-13.504-25.088-13.568-44.864 0 0 0-88.96 0-188.928 0-33.984-14.016-48-46.016-48h-209.984c-20.48 0-64-3.968-64-78.592 0-26.816 36.8-182.336 64.192-238.784 0 0 15.808-48.64 78.848-66.624 0 0 108.096-27.968 145.024-32 33.664-3.648 95.936 0 95.936 96v64c0 17.664 14.336 32 32 32s32-14.336 32-32v-32c0-96 96-94.976 96-94.976h67.968c60.032 0 88.32-33.024 88.32-97.024 0-109.824-35.456-125.696-93.76-128h-61.312c-17.216 0-33.216 13.952-33.216 31.232v32.768c0 32.768 32 32 32 32s30.976 0 32 0c17.664 0 32 14.336 32 32s-14.336 32-32 32h-62.016c-36.48 0-65.984-29.504-65.984-65.92v-62.080c0-96 74.688-128 128-128 0 0 50.304 0 78.656 0 112 0 241.344 0 241.344 407.104v360.896c0 96-75.456 160-160 160zM832 448h-192v32c0 52.992 43.008 96 96 96s96-43.008 96-96v-32z" />
<glyph unicode="&#xe61f;" d="M829.312 640v57.344c0 46.016 4.992 70.656 71.040 70.656 57.024 0 121.024-32 121.024-32v160c0 0-72 64-173.952 64-169.536 0-207.424-87.616-207.424-231.552v-88.448h-321.024v57.344c0 46.016 4.992 70.656 71.040 70.656 57.024 0 121.024-32 121.024-32v160c0 0-72 64-173.888 64-169.6 0-210.176-87.616-210.176-231.552v-88.448l-126.976-0.064v-191.936h128.704v-512h190.336v512h320.96v-512h189.312v512l176 0.064 18.688 191.936h-194.688z" />
<glyph unicode="&#xe620;" d="M770.688 960l-257.344-448.32-258.688 448.32h-126.656l321.344-576v-448h126.656v448l320 576z" />
<glyph unicode="&#xe621;" d="M874.752 387.52l-451.84 566.144-11.584 2.432c-5.44 1.152-129.728 24.128-230.656-56.448-115.328-92.032-106.56-210.688-106.112-215.68l0.832-9.92 450.688-564.736 423.616-173.312-74.944 451.52zM486.912 768c-40.704-7.744-94.656-25.728-147.136-67.648-54.976-43.84-84.288-89.984-100.224-126.464l-35.2 44.032c4.672 23.232 22.72 80.192 92.608 136 61.696 49.28 127.040 57.664 154.176 58.88l35.776-44.8zM534.976 707.776l257.408-322.496c-80.576-34.112-136.32-16.192-154.304-8.064l-231.296 289.728c53.376 33.152 104.832 39.808 128.192 40.832zM652.224 304.192c38.784-8.064 96.512-9.152 166.272 20.48l38.72-233.024-36.864-31.616-214.080 87.552c21.696 32.704 47.168 85.888 45.952 156.608zM221.696 848.192c61.632 49.152 136.576 48.256 165.248 45.056l16.128-20.224c-40.704-7.744-94.656-25.792-147.136-67.648-54.912-43.84-84.224-89.984-100.224-126.464l-15.616 19.584c0.896 24.128 9.984 92.544 81.6 149.696zM288.192 512.896c4.032 20.096 18.368 65.088 67.072 113.088l226.816-284.224c13.888-74.624-11.2-129.088-30.912-158.336l-262.976 329.472z" />
<glyph unicode="&#xe622;" d="M1024 576h-384v384h-256v-384h-384v-256h384v-384h256v384h384z" />
<glyph unicode="&#xe623;" d="M512 274.752l147.072 147.072c9.024-3.52 18.688-5.824 28.928-5.824 44.16 0 80 35.84 80 80s-35.84 80-80 80-80-35.84-80-80c0-10.24 2.304-19.904 5.824-28.928l-101.824-101.824v165.504l147.072 147.072c9.024-3.52 18.688-5.824 28.928-5.824 44.16 0 80 35.84 80 80s-35.84 80-80 80-80-35.84-80-80c0-10.24 2.304-19.904 5.824-28.928l-101.824-101.824v338.752h-64v-210.752l-101.824 101.824c3.52 9.024 5.824 18.688 5.824 28.928 0 44.16-35.84 80-80 80s-80-35.84-80-80 35.84-80 80-80c10.24 0 19.904 2.304 28.928 5.824l147.072-147.072v-165.504l-101.824 101.824c3.52 9.024 5.824 18.688 5.824 28.928 0 44.16-35.84 80-80 80s-80-35.84-80-80 35.84-80 80-80c10.24 0 19.904 2.304 28.928 5.824l147.072-147.072v-165.504l-101.824 101.824c3.52 9.024 5.824 18.688 5.824 28.928 0 44.16-35.84 80-80 80s-80-35.84-80-80 35.84-80 80-80c10.24 0 19.904 2.304 28.928 5.824l147.072-147.072v-210.752h64v82.752l147.072 147.072c9.024-3.52 18.688-5.824 28.928-5.824 44.16 0 80 35.84 80 80s-35.84 80-80 80-80-35.84-80-80c0-10.24 2.304-19.904 5.824-28.928l-101.824-101.824v165.504z" />
<glyph unicode="&#xe624;" d="M832 640h64v-384h-64v384zM174.464 640l-174.464-384h94.464l37.44 96h159.168l38.912-96h88.704l-174.464 384h-69.76zM265.152 416h-108.288l53.12 136.256 55.168-136.256zM1024 304c0-26.51-21.49-48-48-48s-48 21.49-48 48c0 26.51 21.49 48 48 48s48-21.49 48-48zM601.344 576.32c-87.808 0-158.976-71.168-158.976-158.976s71.168-158.976 158.976-158.976c87.808 0 158.976 71.168 158.976 158.976s-71.168 158.976-158.976 158.976zM601.344 321.92c-52.672 0-95.424 42.688-95.424 95.424 0 52.672 42.688 95.424 95.424 95.424 52.672 0 95.424-42.688 95.424-95.424-0.064-52.672-42.752-95.424-95.424-95.424z" />
<glyph unicode="&#xe625;" d="M1024 831.168v0.832l-1024-0.832 512-367.168zM512 288l-448 320v-608h896v608z" />
<glyph unicode="&#xe626;" d="M705.408 370.56c-28.48 20.288-83.008 69.632-83.008 98.624 0 33.984 9.664 50.752 60.544 90.752 52.096 40.96 89.024 98.624 89.024 165.568 0 79.744-35.328 157.568-101.632 183.168h99.904l70.656 51.328c0 0-236.416 0-315.264 0-141.312 0-274.304-107.712-274.304-232.448 0-127.488 96.32-230.464 240.128-230.464 9.984 0 19.712 0.256 29.184 0.896-9.28-17.92-16-38.144-16-59.2 0-35.456 19.008-64.192 42.944-87.616-18.048 0-35.648-0.512-54.656-0.512-175.104 0.064-309.76-112.128-309.76-228.416-0.064-114.56 147.712-186.24 322.688-186.24 199.552 0 309.76 113.92 309.76 228.48 0 91.776-26.944 146.88-110.208 206.080zM537.024 529.408c-81.216 2.432-158.4 91.456-172.416 198.72-14.016 107.328 40.448 189.44 121.6 187.008s158.464-88.576 172.416-195.84c14.080-107.328-40.384-192.32-121.6-189.888zM505.28-13.504c-121.024 0-208.384 77.056-208.384 169.6 0 90.752 108.352 166.208 229.376 164.928 28.224-0.32 54.592-4.864 78.464-12.672 65.664-45.824 112.832-71.808 126.080-124.224 2.496-10.624 3.84-21.504 3.84-32.704-0.064-92.544-59.264-164.928-229.376-164.928z" />
<glyph unicode="&#xe627;" d="M960 512h-64v256c0 29.696-20.608 53.504-48 60.736-3.584 49.6-14.848 85.12-15.872 88.192-6.848 19.84-23.040 35.008-43.2 40.704-5.696 1.6-11.52 2.368-17.28 2.368-14.528 0-28.8-4.928-40.384-14.336-2.176-1.664-67.84-51.968-232.192-102.976-9.088-2.816-16.256-7.232-24.64-10.688h-282.432c-35.328 0-64-28.672-64-64v-256h-64c-35.328 0-64-28.672-64-64v-320c0-35.328 28.672-64 64-64h96l-64-128h832l-64 128h96c35.328 0 64 28.672 64 64v320c0 35.328-28.672 64-64 64zM351.040 512.96c0 0-17.408 211.392 166.976 268.608 184.448 57.216 253.632 114.432 253.632 114.432s132.672-383.040-420.608-383.040zM192 768h185.408c-76.608-79.168-94.656-190.144-90.24-256h-95.168v256zM192 0l96 192h448l96-192h-640zM832 384h-64v64h64v-64zM671.808 512c50.432 25.984 90.816 59.84 120.704 101.76 18.88 26.56 30.656 53.952 39.488 81.088v-182.848h-160.192zM960 384h-64v64h64v-64z" />
<glyph unicode="&#xe628;" d="M1024 453.632c0 70.72-57.28 128-128 128-29.888 0-57.024-10.688-78.784-27.84-71.104 47.36-163.584 78.464-266.24 84.8l57.024 193.408 81.024-26.048c5.12-57.088 52.544-101.952 110.976-101.952 61.824 0 112 50.176 112 112s-50.176 112-112 112c-35.2 0-66.24-16.576-86.784-41.984l-115.968 37.312c-11.904 3.904-25.6 2.816-37.056-3.2-11.392-5.952-20.032-16.448-23.616-28.608l-76.864-253.888c-97.344-8.064-184.896-38.528-252.928-83.84-21.76 17.152-48.896 27.84-78.784 27.84-70.72 0-128-57.28-128-128 0-47.936 26.624-89.152 65.6-111.104-0.768-7.488-1.6-14.912-1.6-22.528 0-176.704 200.576-320 448-320s448 143.296 448 320c0 7.616-0.832 15.040-1.6 22.528 38.976 21.888 65.6 63.168 65.6 111.104zM256 416c0 52.992 43.008 96 96 96s96-43.008 96-96c0-52.992-43.008-96-96-96s-96 43.008-96 96zM718.72 188.992c-40.768-42.56-119.168-68.992-204.736-68.992s-163.968 26.432-204.736 68.992c-16.32 17.216-15.744 44.48 1.344 60.864 16.448 15.744 45.12 15.104 60.864-1.344 20.16-21.12 72.128-42.432 142.528-42.432s122.368 21.312 142.464 42.432c16.192 16.448 44.416 17.088 60.928 1.344 17.088-16.384 17.728-43.648 1.344-60.864zM674.368 319.872c-53.824 0-97.472 43.648-97.472 97.472s43.648 97.472 97.472 97.472 97.472-43.648 97.472-97.472c0-53.824-43.648-97.472-97.472-97.472z" />
<glyph unicode="&#xe629;" d="M866.688 128.192c-40.384 0-84.48 52.864-114.688 89.536-17.088 20.736-78.592 95.232-109.312 87.552-28.032-6.912-26.688-49.28-26.688-133.248 0-45.312-58.688-43.84-162.56-43.84-206.784 0-453.184 529.152-453.184 600.256 0 29.888 134.080 27.584 165.376 7.808 13.12-8.384 131.456-291.456 186.368-291.456 30.080 0 67.968 15.232 67.968 144.576 0 112-8 108.032-71.488 136.768 17.344 37.76 71.68 41.472 129.088 41.472 48.192 0 93.824 3.84 117.12-27.648 22.016-29.76 16.192-60.032 16.192-148.8 0-129.856 6.528-141.888 34.496-141.888 25.28 0 82.56 108.032 125.952 211.392 10.432 24.832 27.008 83.648 46.016 91.392 28.928 11.84 190.016 12.16 201.152-13.76 9.28-21.504-163.84-299.584-162.176-331.2 1.28-24 167.872-192.448 167.872-252.416 0.064-30.656-69.888-26.496-157.504-26.496z" />
<glyph unicode="&#xe62a;" d="M832 960h-640c-35.328 0-64-28.672-64-64v-960l384 370.88 384-370.88v960c0 35.328-28.672 64-64 64z" />
<glyph unicode="&#xe62b;" d="M512 378.816l-512 414.144v-728.96h1024v728.96zM970.496 832h-916.992l458.496-370.88z" />
<glyph unicode="&#xe62c;" d="M885.504 798.528c-233.152 15.68-509.568 19.968-747.008 0-73.728-8.256-124.224-97.984-129.728-166.144-11.648-143.168-11.648-224.64 0-367.808 5.568-68.16 54.784-158.4 129.792-167.872 240.256-15.744 515.264-17.92 747.008 0 72.576 12.608 124.224 99.712 129.792 167.872 11.648 143.168 11.648 233.536 0 376.768-5.632 68.16-46.336 154.112-129.856 157.184zM384 266.88v367.040l320-183.552-320-183.488z" />
<glyph unicode="&#xe62d;" d="M883.776 74.88c-8.064-2.752-17.088-6.464-25.152-9.28-115.776-41.664-237.568-61.12-350.272-61.12-179.2 0-352.32 45.376-492.224 120.32-13.056 6.464-22.144-5.568-11.072-13.888 129.856-108.288 300.992-173.12 492.224-173.12 118.784 0 255.68 30.528 361.408 88.896 14.080 7.424 28.16 15.744 41.28 25.024 17.984 12.096 1.92 30.592-16.192 23.168zM1019.84 175.936c-9.344 13.44-77.632 25.728-136.704 4.928-16.576-6.144-31.040-14.72-44.544-25.728-10.368-8.576-8.256-19.584 2.048-18.368 11.392 2.432 25.856 3.648 42.432 6.144 36.224 3.648 78.72 4.928 89.024-11.008 14.528-20.8-16.576-111.424-30.016-150.656-4.16-12.224 5.184-17.152 14.528-8.576 46.656 46.528 66.368 131.008 67.392 175.104v7.36c0 9.792-2.048 17.152-4.16 20.8zM827.328 327.424c-25.664 32.64-59.328 60.672-59.328 123.712v210.048c0 88.704 14.976 170.432-50.368 231.104-53.696 49.024-137.728 67.712-203.072 67.712-9.344 0-18.688 0-28.032 0-119.040-6.976-245.12-64.576-273.152-211.648-4.608-18.688 9.408-25.664 18.752-28.032l130.688-16.32c14.016 2.304 20.992 14.016 23.36 25.664 11.648 51.328 53.696 83.264 100.352 87.936 2.304 0 4.672 0 9.344 0 28.032 0 80.128-21.568 80.128-65.6 0 0 0-34.752 0-67.456v-44.544c-30.336-2.304-64 0-89.472 0-54.144 0-107.392 0.192-151.744-20.8-86.336-35.008-142.784-109.696-142.784-219.456 0-137.728 86.784-207.744 198.848-207.744 37.376 0 67.712 4.672 95.68 11.648 44.352 14.016 81.728 39.68 126.080 86.4 25.664-35.008 32.704-51.328 77.056-88.704 11.648-4.672 23.36-4.672 32.704 2.304 28.032 23.36 77.056 65.344 102.72 88.704 11.584 9.344 9.28 23.36 2.24 35.072zM586.944 530.496c0-53.696 2.304-95.68-25.664-142.4-16.384-32.704-44.416-53.696-74.752-60.672-4.672 0-11.648-2.304-18.688-2.304-51.328 0-81.728 39.68-81.728 98.048 0 74.688 44.352 109.696 100.352 126.080 30.4 6.912 65.408 9.216 100.48 9.216v-27.968z" />
<glyph unicode="&#xe62e;" d="M512.704 446.528v-510.528h465.664c25.152 0 45.632 20.48 45.632 45.632v464.896h-511.296zM0 914.368v-464.96h511.296v510.592h-465.728c-25.088 0-45.568-20.48-45.568-45.632z" />
<glyph unicode="&#xe62f;" d="M657.728 960c0 0-236.416 0-315.264 0-141.248 0-274.24-107.712-274.24-232.448 0-127.488 96.32-230.464 240.128-230.464 9.984 0 19.712 0.256 29.184 0.896-9.28-17.92-16-38.144-16-59.2 0-35.456 19.008-64.192 42.944-87.616-18.048 0-35.648-0.512-54.656-0.512-175.104 0-309.824-112.192-309.824-228.48 0-114.496 147.712-186.176 322.752-186.176 199.552 0 309.76 113.92 309.76 228.48 0 91.84-26.944 146.88-110.208 206.144-28.48 20.288-83.008 69.568-83.008 98.56 0 33.984 9.664 50.752 60.544 90.752 52.096 41.024 89.024 98.624 89.024 165.632 0 79.744-35.328 157.568-101.632 183.168h99.904l70.592 51.264zM547.648 184.192c2.496-10.624 3.84-21.504 3.84-32.704 0-92.544-59.264-164.928-229.376-164.928-121.024 0-208.384 77.056-208.384 169.6 0 90.752 108.352 166.208 229.376 164.928 28.224-0.32 54.592-4.864 78.464-12.672 65.728-45.824 112.832-71.808 126.080-124.224zM353.92 529.408c-81.28 2.432-158.464 91.456-172.416 198.72-14.016 107.328 40.448 189.44 121.6 187.008s158.4-88.512 172.416-195.776c14.080-107.392-40.448-192.384-121.6-189.952zM896 704v128h-64v-128h-128v-64h128v-128h64v128h128v64z" />
<glyph unicode="&#xe630;" d="M977.792 960h-931.584c-25.472 0-46.208-20.672-46.208-46.144v-931.712c0-25.408 20.736-46.144 46.208-46.144h931.584c25.472 0 46.208 20.736 46.208 46.144v931.712c0 25.472-20.736 46.144-46.208 46.144zM690.688 448c0-98.688-80-178.688-178.688-178.688s-178.688 80-178.688 178.688c0 22.656 4.672 44.096 12.288 64 25.856 66.944 90.368 114.688 166.4 114.688s140.544-47.744 166.336-114.688c7.68-19.904 12.352-41.344 12.352-64zM896 64h-768v448h84.288c-4.416-20.672-6.976-42.048-6.976-64 0-169.088 137.6-306.688 306.688-306.688s306.688 137.6 306.688 306.688c0 21.952-2.56 43.328-6.976 64h84.288v-448zM896 640h-146.816c-13.504 16.64-28.544 31.68-45.184 45.184v146.816h192v-192z" />
<glyph unicode="&#xe631;" d="M130.048 0h189.952v704h-189.952v-704zM709.568 703.936c-69.568 0-104.256-33.152-133.568-55.616v55.68h-190.976v-704h190.976v443.2c0 0-6.976 88.256 98.816 88.256 63.744 0 93.184-36.288 93.184-88.256v-443.2h192v436.992c0 240-184 266.944-250.432 266.944zM320 864c0-52.992-43.008-96-96-96s-96 43.008-96 96 43.008 96 96 96 96-43.008 96-96z" />
<glyph unicode="&#xe632;" d="M1018.944 655.040c0-85.22-69.342-154.304-154.88-154.304s-154.88 69.084-154.88 154.304c0 85.22 69.342 154.304 154.88 154.304s154.88-69.084 154.88-154.304zM620.608 608.768c0-77.373-62.952-140.096-140.608-140.096s-140.608 62.723-140.608 140.096c0 77.373 62.952 140.096 140.608 140.096s140.608-62.723 140.608-140.096zM249.92 555.072c0-67.087-54.585-121.472-121.92-121.472s-121.92 54.385-121.92 121.472c0 67.087 54.585 121.472 121.92 121.472s121.92-54.385 121.92-121.472zM128 384c-73.856 0-128-66.048-128-134.272v-109.888c0-6.528 5.184-11.84 11.648-11.84h232.704c6.4 0 11.648 5.312 11.648 11.84v0 109.888c0 68.224-54.144 134.272-128 134.272zM480 416c-92.288 0-160-88.064-160-179.008v-93.248c0-8.64 6.528-15.744 14.528-15.744h290.88c8.064 0 14.592 7.104 14.592 15.744v0 93.248c0 90.944-67.712 179.008-160 179.008zM864 448c-92.288 0-160-88.064-160-179.008v-125.248c0-8.64 6.528-15.744 14.528-15.744h290.88c8.064 0 14.592 7.104 14.592 15.744v0 125.248c0 90.944-67.648 179.008-160 179.008z" />
<glyph unicode="&#xe633;" d="M704 565.76l-364.48 364.416c53.888 19.264 111.936 29.824 172.48 29.824 67.904 0 132.672-13.248 192-37.248v-356.992zM768 256v635.456c153.024-88.512 256-253.952 256-443.456 0-67.904-13.248-132.672-37.248-192h-218.752zM320 192h635.456c-88.512-153.024-253.952-256-443.456-256-67.904 0-132.736 13.248-192 37.248v218.752zM426.24 736l-411.264-411.264c-9.792 39.488-14.976 80.768-14.976 123.264 0 193.408 107.2 361.728 265.472 448.832l160.768-160.832zM256 458.24v-453.696c-94.592 54.72-170.048 138.816-213.888 239.872l213.888 213.824z" />
<glyph unicode="&#xe634;" d="M512 960c-282.752 0-512-229.248-512-512s229.248-512 512-512 512 229.248 512 512-229.248 512-512 512zM748.544 147.84c-6.4-11.648-18.432-18.24-30.848-18.24-5.76 0-11.52 1.408-16.96 4.352-81.984 45.12-175.104 69.056-269.184 69.056-56.384 0-112.064-8.384-165.376-24.896-18.56-5.76-38.272 4.672-43.968 23.232-5.76 18.56 4.608 57.92 23.232 63.68 60.096 18.56 122.752 28.032 186.176 28.032 105.92 0 210.752-26.88 303.104-77.76 17.024-9.344 23.232-50.432 13.824-67.456zM813.568 340.736c-7.296-14.080-21.632-36.928-36.48-36.928-6.4 0-12.864 1.472-18.88 4.672-101.568 52.736-211.456 79.488-326.592 79.488-63.424 0-126.4-8.384-187.2-25.024-21.952-5.952-44.48 6.912-50.432 28.8-5.888 21.824 6.976 59.2 28.864 65.152 67.84 18.496 138.112 27.904 208.768 27.904 126.656 0 252.672-30.72 364.416-88.768 20.096-10.432 27.968-35.2 17.536-55.296zM840.768 495.168c-7.040 0-14.144 1.6-20.864 4.928-121.28 60.48-251.904 91.072-388.288 91.072-71.040 0-141.824-8.64-210.496-25.6-25.152-6.208-50.56 9.088-56.768 34.24-6.272 25.088 9.088 55.488 34.24 61.696 75.968 18.88 154.368 28.416 233.024 28.416 151.040 0 295.744-33.984 430.080-100.928 23.168-11.52 32.576-39.744 21.056-62.912-8.192-16.448-24.768-30.912-41.984-30.912z" />
<glyph unicode="&#xe635;" d="M107.008 960c0 0 69.056-17.6 135.424 0l270.912-448.32 273.6 448.32c0 0 62.336-16.256 130.048 0l-346.752-587.84 8.128-436.16c0 0-55.552 16.256-130.048 0l8.128 436.16-349.44 587.84z" />
<glyph unicode="&#xe636;" d="M957.824 576h-57.408c-35.136 0-65.984 29.76-68.416 64v0c0 182.656-147.264 320-331.2 320h-167.808c-183.808 0-332.864-148.032-332.992-330.688v-362.816c0-182.592 149.184-330.496 332.992-330.496h358.4c183.936 0 332.608 147.904 332.608 330.56v234.368c0 36.48-29.44 75.072-66.176 75.072zM320 704h192c35.2 0 64-28.8 64-64s-28.8-64-64-64h-192c-35.2 0-64 28.8-64 64s28.8 64 64 64zM704 192h-384c-35.2 0-64 28.8-64 64s28.8 64 64 64h384c35.2 0 64-28.8 64-64s-28.8-64-64-64z" />
<glyph unicode="&#xe637;" d="M561.856 553.088c-39.040 2.304-84.096-0.064-136.256-8.96l120.32-216.896 478.080 131.264c-5.184 12.288-12.672 24.256-22.656 35.776-49.472 57.28-156.736 108.352-273.6 131.392v0c-114.624 26.88-238.784 25.728-365.952 6.528-4.608-0.704-9.152-1.408-13.696-2.176l-42.24 78.272c-41.152-5.504-79.808-14.080-115.584-25.472l40.256-84.224c-65.792-25.472-119.744-61.76-158.656-105.408-64.256-72.96-89.664-164.8-58.816-254.272 6.208-18.048 14.592-35.136 24.96-51.2l478.080 131.328-132.736 245.824c4.544 0.896 9.216 1.792 13.952 2.624 214.656 38.272 332.096-20.864 396.416-83.84l-163.584-39.68-68.288 109.12zM174.72 333.696c-14.784 67.328-3.008 142.528 90.432 192.576l73.152-152.96-163.584-39.616z" />
<glyph unicode="&#xe638;" d="M512-64c-282.304 0-512 229.696-512 512s229.696 512 512 512 512-229.696 512-512-229.696-512-512-512zM943.808 377.92c-14.976 4.736-135.36 40.64-272.384 18.688 57.216-157.184 80.448-285.184 84.928-311.808 98.112 66.368 167.936 171.456 187.456 293.12zM682.816 44.736c-6.528 38.4-31.872 172.096-93.312 331.648-0.96-0.32-1.92-0.64-2.88-0.96-246.656-85.952-335.232-257.024-343.104-273.088 74.176-57.792 167.36-92.288 268.416-92.288 60.672-0.064 118.4 12.352 170.88 34.688zM187.072 154.944c9.92 16.96 129.92 215.68 355.456 288.576 5.696 1.856 11.456 3.584 17.216 5.184-11.008 24.832-22.912 49.728-35.456 74.24-218.368-65.344-430.336-62.656-449.472-62.208-0.128-4.416-0.192-8.896-0.192-13.376 0.064-112.32 42.624-214.912 112.448-292.416zM83.904 536.896c19.584-0.256 199.744-1.024 404.288 53.312-72.448 128.832-150.592 237.12-162.112 252.928-122.368-57.728-213.824-170.496-242.176-306.24zM409.536 872.512c12.096-16.192 91.52-124.352 163.2-256 155.52 58.304 221.312 146.752 229.184 157.952-77.248 68.544-178.752 110.208-289.92 110.208-35.264 0-69.568-4.224-102.464-12.16zM850.496 723.904c-9.216-12.48-82.496-106.432-244.224-172.416 10.176-20.864 19.904-42.048 28.992-63.36 3.2-7.552 6.336-15.104 9.408-22.592 145.536 18.304 290.112-11.008 304.512-14.080-0.896 103.232-37.76 198.016-98.688 272.448z" />
<glyph unicode="&#xe639;" d="M213.312 238.144c-117.824 0-213.312 95.488-213.312 213.312s95.488 213.312 213.312 213.312 213.312-95.488 213.312-213.312-95.424-213.312-213.312-213.312zM810.688 238.144c-117.824 0-213.312 95.488-213.312 213.312s95.488 213.312 213.312 213.312 213.312-95.424 213.312-213.312-95.488-213.312-213.312-213.312z" />
<glyph unicode="&#xe63a;" d="M578.56 217.344c-62.336 4.8-88.512 35.712-137.408 65.472-26.816-141.056-59.712-276.224-156.992-346.816-30.016 213.056 44.096 373.056 78.464 542.976-58.688 98.816 7.040 297.6 130.816 248.576 152.32-60.224-131.904-367.232 58.88-405.568 199.168-40.064 280.512 345.6 156.992 471.040-178.496 181.056-519.488 4.096-477.568-255.104 10.24-63.424 75.648-82.624 26.176-170.112-114.24 25.28-148.288 115.392-143.936 235.456 7.040 196.608 176.64 334.208 346.752 353.28 215.168 24.128 416.96-78.912 444.864-281.28 31.488-228.352-97.024-475.776-327.040-457.92z" />
<glyph unicode="&#xe63b;" d="M384 192c0-70.692-57.308-128-128-128s-128 57.308-128 128c0 70.692 57.308 128 128 128s128-57.308 128-128zM128 960v-128c424.128 0 768-343.872 768-768h128c0 494.848-401.152 896-896 896zM128 640v-128c247.424 0 448-200.576 448-448h128c0 318.144-257.856 576-576 576z" />
<glyph unicode="&#xe63c;" d="M975.296 382.080c2.816 20.8 4.416 41.92 4.416 63.488 0 258.304-210.56 467.776-470.208 467.776-25.792 0-51.136-2.112-75.712-6.144-44.16 28.8-96.704 45.504-153.216 45.504-155.072-0.064-280.576-125.696-280.576-280.64 0-56.384 16.576-108.864 45.184-152.768-3.84-24.064-5.824-48.64-5.824-73.728 0-258.368 210.432-467.776 470.144-467.776 29.312 0 57.856 2.88 85.568 7.872 43.072-26.752 93.888-42.304 148.288-42.304 155.072 0 280.64 125.632 280.64 280.64 0 58.56-17.92 113.024-48.704 158.080zM553.472 100.8c-149.44-7.808-219.328 25.28-283.392 85.376-71.552 67.136-42.816 143.68 15.488 147.584 58.24 3.904 93.184-66.048 124.288-85.44 31.040-19.392 149.184-63.552 211.584 7.808 67.968 77.632-45.184 117.824-128.128 129.984-118.4 17.536-267.904 81.6-256.256 207.808 11.648 126.080 107.136 190.784 207.68 199.872 128.128 11.648 211.584-19.392 277.568-75.712 76.288-65.088 35.008-137.792-13.568-143.616-48.448-5.824-102.784 107.008-209.6 108.672-110.080 1.728-184.448-114.496-48.576-147.584 135.936-33.024 281.472-46.592 333.952-170.816 52.48-124.16-81.472-256.192-231.040-263.936z" />
<glyph unicode="&#xe63d;" d="M512 640c-35.264 0-64-28.736-64-64v-256c0-105.856-86.144-192-192-192s-192 86.144-192 192v128h128v-128c0-35.264 28.736-64 64-64s64 28.736 64 64v256c0 105.856 86.144 192 192 192s192-86.144 192-177.984v-62.016l-67.968-24-60.032 24v62.016c0 21.248-28.736 49.984-64 49.984zM960 320c0-105.856-86.144-192-192-192s-192 86.144-192 206.016v124.032l60.032-24 67.968 24v-124.032c0-49.28 28.736-78.016 64-78.016s64 28.736 64 64v128h128v-128z" />
<glyph unicode="&#xe63e;" d="M575.936 512l-0.064-234.176c0-59.456-0.768-93.696 5.568-110.528 6.272-16.704 21.888-34.112 38.976-44.16 22.72-13.632 48.576-20.416 77.696-20.416 51.84 0 82.496 6.848 133.76 40.576v-153.984c-43.712-20.544-81.856-32.576-117.312-40.896-35.52-8.256-73.856-12.416-115.072-12.416-46.848 0-74.432 5.888-110.4 17.664-35.968 11.84-66.688 28.8-92.032 50.56-25.472 21.888-43.008 45.184-52.864 69.824-9.792 24.64-14.72 60.416-14.72 107.2v330.752h-137.408v173.376c40.192 13.056 85.184 31.808 113.792 56.192 28.736 24.448 51.776 53.696 69.12 87.936 17.344 34.112 29.312 77.696 35.84 130.496h165.12v-256h255.936v-192h-255.936z" />
<glyph unicode="&#xe63f;" d="M576-64h-190.272v512h-128.704v191.936l126.976 0.064v88.448c0 143.936 40.576 231.552 210.112 231.552h173.888v-192h-120.96c-66.048 0-71.040-24.64-71.040-70.656v-57.344h194.688l-18.688-191.936-176-0.064v-512z" />
<glyph unicode="&#xe640;" d="M1024.064 765.504c-37.696-16.704-78.144-28.032-120.64-33.088 43.392 25.984 76.672 67.2 92.352 116.224-40.576-24.064-85.568-41.536-133.44-51.008-38.336 40.896-92.928 66.368-153.344 66.368-116.032 0-210.112-94.080-210.112-210.048 0-16.448 1.856-32.512 5.44-47.872-174.592 8.832-329.408 92.48-433.024 219.52-18.112-31.040-28.416-67.136-28.416-105.6 0-72.896 37.12-137.216 93.44-174.848-34.432 1.152-66.816 10.624-95.168 26.368 0-0.896 0-1.728 0-2.624 0-101.76 72.448-186.688 168.512-206.016-17.6-4.8-36.16-7.36-55.36-7.36-13.568 0-26.688 1.344-39.552 3.776 26.752-83.456 104.32-144.192 196.224-145.92-71.872-56.32-162.496-89.92-260.928-89.92-16.96 0-33.664 1.024-50.112 2.944 92.992-59.584 203.392-94.4 322.048-94.4 386.432 0 597.76 320.128 597.76 597.76 0 9.088-0.192 18.176-0.64 27.2 41.152 29.504 76.8 66.432 104.96 108.544z" />
<glyph unicode="&#xe641;" d="M0 651.648l41.6-54.528c0 0 85.76 67.584 114.368 33.792s137.728-441.984 174.144-517.248c31.808-66.048 119.488-153.344 215.744-91.008 96.128 62.336 415.808 335.296 473.088 657.6 57.152 322.24-384.704 254.72-431.552-25.984 116.992 70.208 179.456-28.544 119.552-140.352-59.776-111.744-114.368-184.576-142.976-184.576-28.544 0-50.496 74.752-83.2 205.44-33.792 135.104-33.6 378.432-174.144 350.848-132.48-26.048-306.624-233.984-306.624-233.984z" />
<glyph unicode="&#xe642;" d="M0 448c0-202.624 117.76-377.792 288.576-460.736l-244.224 669.056c-28.416-63.616-44.352-134.144-44.352-208.32zM857.6 473.856c0 63.232-22.72 107.072-42.24 141.248-25.92 42.24-50.24 77.888-50.24 120.128 0 47.040 35.648 90.88 86.016 90.88 2.304 0 4.416-0.256 6.656-0.448-91.136 83.328-212.48 134.336-345.792 134.336-178.88 0-336.192-91.84-427.776-230.784 12.032-0.32 23.36-0.64 32.96-0.64 53.504 0 136.448 6.464 136.448 6.464 27.584 1.6 30.784-38.912 3.264-42.24 0 0-27.712-3.264-58.624-4.8l186.432-554.56 112.064 336-79.808 218.624c-27.584 1.536-53.696 4.8-53.696 4.8-27.584 1.664-24.32 43.776 3.264 42.24 0 0 84.544-6.464 134.848-6.464 53.504 0 136.448 6.464 136.448 6.464 27.584 1.6 30.912-38.912 3.264-42.24 0 0-27.84-3.264-58.624-4.8l185.152-550.4 51.136 170.56c22.016 70.912 38.848 121.792 38.848 165.632zM520.96 403.2l-153.6-446.4c45.888-13.44 94.4-20.8 144.64-20.8 59.648 0 116.8 10.24 169.984 28.992-1.344 2.176-2.624 4.544-3.648 7.104l-157.376 431.104zM961.28 693.632c2.24-16.32 3.392-33.792 3.392-52.672 0-51.968-9.728-110.272-38.912-183.36l-156.416-452.096c152.256 88.704 254.656 253.632 254.656 442.496 0 89.024-22.784 172.672-62.72 245.632z" />
<glyph unicode="&#xe643;" d="M640 704h320v-64h-320v64zM301.76 768c30.592 0 58.24-2.624 83.52-8.128 25.088-5.312 46.528-14.208 64.64-26.432 17.792-12.16 31.808-28.416 41.792-48.832 9.664-20.032 14.592-45.248 14.592-75.008 0-32.192-7.296-59.136-21.952-80.64-14.72-21.504-36.352-39.104-65.28-52.8 39.424-11.328 68.544-31.232 87.936-59.584 19.456-28.544 28.928-62.72 28.928-102.72 0-32.448-6.208-60.416-18.624-83.904-12.544-23.808-29.568-43.072-50.624-57.984-21.248-15.040-45.568-26.048-72.832-33.216-26.944-7.168-54.976-10.752-83.648-10.752h-310.208v640h301.76zM283.52 512c24.96 0 45.632 3.328 62.016 15.36 16.192 11.84 24.064 31.36 24.064 58.176 0 14.912-2.624 27.2-7.872 36.736-5.44 9.6-12.608 17.088-21.696 22.336-9.024 5.44-19.2 9.216-31.040 11.264-11.584 2.24-23.744 3.136-36.224 3.136h-131.84v-147.008h142.592zM291.264 236.992c13.888 0 27.072 1.216 39.488 4.032 12.608 2.752 23.808 7.104 33.216 13.568 9.408 6.208 17.216 14.72 22.912 25.536 5.696 10.752 8.448 24.64 8.448 41.472 0 32.96-9.28 56.384-27.712 70.656-18.496 14.016-43.136 20.992-73.472 20.992h-153.216v-176.256h150.336zM725.12 247.488c18.752-18.304 45.888-27.52 81.024-27.52 25.28 0 47.104 6.4 65.408 19.136 18.176 12.736 29.184 26.304 33.472 40.448h110.336c-17.728-54.912-44.608-94.080-81.344-117.696-36.288-23.68-80.512-35.52-132.032-35.52-35.904 0-68.224 5.824-97.28 17.28-28.992 11.584-53.248 27.84-73.664 49.024-19.904 21.312-35.328 46.464-46.336 76.032-10.88 29.376-16.384 61.888-16.384 97.152 0 34.112 5.696 65.984 16.832 95.424 11.392 29.568 27.072 55.040 47.744 76.416 20.736 21.504 45.312 38.464 73.92 50.88 28.608 12.352 60.16 18.56 95.104 18.56 38.592 0 72.384-7.424 101.376-22.528 28.864-14.912 52.544-35.136 71.104-60.416s31.808-54.144 40.064-86.592c8.256-32.384 11.072-82.176 8.768-117.568h-329.088c-0.064-36.032 12.16-54.208 30.976-72.512zM869.056 487.104c-14.848 16.448-40.128 25.408-70.848 25.408-20.032 0-36.608-3.392-49.856-10.24-12.992-6.784-23.616-15.232-31.744-25.152-8.064-10.112-13.568-20.736-16.768-32.128-3.2-11.072-5.12-21.184-5.696-30.080h203.84c-3.072 32-14.016 55.616-28.928 72.192z" />
<glyph unicode="&#xe644;" d="M896 960h-768c-70.72 0-128-57.28-128-128v-768c0-70.72 57.28-128 128-128h768c70.72 0 128 57.28 128 128v768c0 70.72-57.28 128-128 128zM128 832h768v-692.352l-173.056 173.056c-9.664 9.664-25.344 9.664-35.008 0l-99.648-99.648-221.504 221.504c-17.92 17.92-46.976 17.92-64.896 0l-173.888-173.888v571.328zM768 608c0-53.019-42.981-96-96-96s-96 42.981-96 96c0 53.019 42.981 96 96 96s96-42.981 96-96z" />
<glyph unicode="&#xe645;" d="M862.464 576h-30.464v64c0 176.704-143.296 320-320 320s-320-143.296-320-320v-64h-30.464c-53.888 0-97.536-43.648-97.536-97.536v-444.864c0-53.952 43.648-97.6 97.536-97.6h700.864c53.952 0 97.6 43.648 97.6 97.536v444.928c0 53.888-43.648 97.536-97.536 97.536zM320 640c0 105.856 86.144 192 192 192s192-86.144 192-192v-64h-384v64zM576 192c0-35.328-28.672-64-64-64s-64 28.672-64 64v160c0 35.328 28.672 64 64 64s64-28.672 64-64v-160z" />
<glyph unicode="&#xe646;" d="M496.576 709.12c16.896-19.136 23.936-69.12 0-69.12-110.272 0-350.016 0-481.152 0-23.936 0-16.896 49.984 0 69.12l209.92 236.608c16.896 19.072 44.352 19.072 61.312 0l209.92-236.608zM320 256h-128c-35.328 0-64 28.672-64 64v384c0 35.328 28.672 64 64 64h128c35.328 0 64-28.672 64-64v-384c0-35.328-28.672-64-64-64zM0 0v64c0 35.328 28.672 64 64 64h896c35.328 0 64-28.672 64-64v-64c0-35.328-28.672-64-64-64h-896c-35.328 0-64 28.672-64 64zM527.424 442.88c-16.896 19.136-23.936 69.12 0 69.12 110.272 0 350.016 0 481.152 0 23.936 0 16.896-49.984 0-69.12l-209.92-236.608c-16.896-19.072-44.352-19.072-61.312 0l-209.92 236.608zM704 896h128c35.328 0 64-28.672 64-64v-384c0-35.328-28.672-64-64-64h-128c-35.328 0-64 28.672-64 64v384c0 35.328 28.672 64 64 64z" />
<glyph unicode="&#xe647;" d="M960 960h-448c-35.328 0-64-28.672-64-64v0-384c0 0 0 0 0 0-45.568 0-87.168 0-116.416 0-17.984 0-12.672-40 0-55.296l157.44-189.248c12.672-15.296 33.28-15.296 45.952 0l157.44 189.248c12.672 15.296 17.984 55.296 0 55.296-32.128 0-73.152 0-116.416 0 0 0 0 0 0 0v320h320v-768h-768v768h128c35.328 0 64 28.672 64 64v0c0 35.328-28.672 64-64 64h-192c-35.328 0-64-28.672-64-64v0 0-896c0-35.328 28.672-64 64-64v0 0h896c35.328 0 64 28.672 64 64v0 896c0 35.328-28.672 64-64 64z" />
<glyph unicode="&#xe648;" d="M982.4 514.496l-101.184 26.496c-19.456 5.12-35.456 18.944-43.072 37.568-1.088 2.624-2.176 5.248-3.264 7.808-7.744 18.56-6.272 39.616 3.904 56.96l52.8 90.24c12.672 21.696 8.832 48.896-8.512 67.072-6.016 6.336-12.16 12.48-18.496 18.496-18.176 17.28-45.376 21.184-67.072 8.512l-90.24-52.8c-17.344-10.176-38.464-11.648-56.96-3.904-2.56 1.088-5.184 2.176-7.744 3.264-18.624 7.616-32.448 23.616-37.568 43.008l-26.496 101.184c-6.336 24.32-28.288 40.768-53.44 41.408-8.704 0.192-17.408 0.192-26.176 0-25.088-0.64-47.040-17.088-53.376-41.408l-26.496-101.184c-5.12-19.392-18.944-35.392-37.568-43.008-2.56-1.088-5.184-2.176-7.808-3.264-18.56-7.744-39.616-6.272-56.96 3.904l-90.24 52.8c-21.696 12.672-48.896 8.832-67.136-8.512-6.336-6.016-12.48-12.16-18.496-18.496-17.28-18.176-21.12-45.376-8.448-67.072l52.8-90.24c10.176-17.344 11.648-38.464 3.904-56.96-1.088-2.624-2.176-5.248-3.264-7.808-7.616-18.624-23.616-32.448-43.008-37.568l-101.184-26.496c-24.32-6.336-40.768-28.288-41.408-53.44-0.192-8.704-0.192-17.408 0-26.176 0.64-25.088 17.088-47.040 41.408-53.376l101.184-26.496c19.456-5.056 35.456-18.944 43.072-37.504 1.088-2.624 2.176-5.248 3.264-7.808 7.744-18.56 6.272-39.68-3.904-57.024l-52.8-90.24c-12.736-21.696-8.896-48.896 8.448-67.072 6.016-6.336 12.16-12.48 18.496-18.496 18.24-17.28 45.376-21.184 67.072-8.512l90.24 52.8c17.344 10.176 38.464 11.648 56.96 3.904 2.624-1.088 5.248-2.176 7.808-3.264 18.624-7.616 32.448-23.616 37.568-43.072l26.496-101.184c6.336-24.32 28.352-40.768 53.44-41.408 8.704-0.192 17.408-0.192 26.176 0 25.088 0.64 47.104 17.152 53.44 41.408l26.496 101.184c5.12 19.456 19.008 35.456 37.568 43.072 2.624 1.088 5.248 2.176 7.808 3.264 18.496 7.744 39.616 6.208 56.96-3.904l90.24-52.8c21.696-12.672 48.896-8.832 67.072 8.512 6.336 6.016 12.48 12.16 18.496 18.496 17.28 18.24 21.184 45.376 8.512 67.072l-52.8 90.24c-10.176 17.344-11.648 38.464-3.904 57.024 1.088 2.56 2.176 5.184 3.264 7.808 7.616 18.624 23.616 32.448 43.072 37.504l101.184 26.496c24.32 6.336 40.768 28.352 41.408 53.44 0.192 8.704 0.192 17.408 0 26.176-0.768 25.088-17.216 47.040-41.536 53.376zM512 256c-106.048 0-192 85.952-192 192s85.952 192 192 192 192-85.952 192-192-85.952-192-192-192z" />
<glyph unicode="&#xe649;" d="M326.976 330.116l185.024 185.024 185.024-185.024c12.48-12.48 32.768-12.48 45.248 0s12.48 32.768 0 45.248l-207.552 207.552c-6.272 6.272-14.464 9.344-22.72 9.344s-16.448-3.072-22.72-9.344l-207.552-207.552c-12.48-12.48-12.48-32.768 0-45.248s32.768-12.48 45.248 0z" />
<glyph unicode="&#xe64a;" d="M204.8 691.2v-460.8c0-42.394 34.406-76.8 76.8-76.8h460.8c42.394 0 76.8 34.406 76.8 76.8v460.8c0 42.394-34.406 76.8-76.8 76.8h-460.8c-42.394 0-76.8-34.406-76.8-76.8zM307.2 665.6h409.6v-409.6l-78.234 123.648c-5.786 5.786-15.206 5.786-20.992 0l-59.802-59.802-132.864 132.915c-10.752 10.752-28.16 10.752-38.912 0l-78.797-94.362v307.2zM665.6 556.8c0-31.812-25.788-57.6-57.6-57.6s-57.6 25.788-57.6 57.6c0 31.812 25.788 57.6 57.6 57.6s57.6-25.788 57.6-57.6zM256 51.2h-153.6v819.2h153.6c28.16 0 51.2 23.040 51.2 51.2s-23.040 51.2-51.2 51.2h-204.8c-28.16 0-51.2-23.040-51.2-51.2 0 0 0 0 0 0v-921.6c0 0 0 0 0 0 0-14.080 5.786-26.88 15.053-36.147s22.067-15.053 36.147-15.053c0 0 0 0 0 0h204.8c28.16 0 51.2 23.040 51.2 51.2s-23.040 51.2-51.2 51.2zM972.8 972.8h-204.8c-28.16 0-51.2-23.040-51.2-51.2s23.040-51.2 51.2-51.2h153.6v-819.2h-153.6c-28.16 0-51.2-23.040-51.2-51.2s23.040-51.2 51.2-51.2h204.8c0 0 0 0 0 0 28.16 0 51.2 23.040 51.2 51.2v921.6c0 28.16-23.040 51.2-51.2 51.2z" />
<glyph unicode="&#xe64b;" d="M992 960h-128c-7.744 0-15.232-2.816-21.12-7.936l-441.728-387.264c-22.848 4.8-58.176 11.2-81.152 11.2-176.448 0-320-143.552-320-320s143.552-320 320-320 320 143.552 320 320c0 52.416-9.984 87.552-21.312 116.736l85.312 11.264c51.968 0 64 16 64 64v128h64c60.032 0 64 16 64 64v64h64c64 0 64 16 64 64v160c0 17.664-14.336 32-32 32zM224 64c-52.992 0-96 43.008-96 96s43.008 96 96 96c38.4 0 71.552-22.592 86.912-55.168 5.824-12.416 9.088-26.24 9.088-40.832 0-52.992-43.008-96-96-96z" />
<glyph unicode="&#xe64c;" d="M640 512c0-70.692-57.308-128-128-128s-128 57.308-128 128c0 70.692 57.308 128 128 128s128-57.308 128-128zM512 960c-282.752 0-512-229.248-512-512s229.248-512 512-512 512 229.248 512 512-229.248 512-512 512zM718.4 124.736c-47.168 118.080-121.6 195.264-206.208 195.264-84.736 0-159.040-77.248-205.952-195.648-106.944 68.224-178.24 187.648-178.24 323.648 0 211.712 172.288 384 384 384s384-172.288 384-384c0-135.744-70.976-254.976-177.6-323.264z" />
<glyph unicode="&#xe64d;" d="M768 448c0-141.385-114.615-256-256-256s-256 114.615-256 256c0 141.385 114.615 256 256 256s256-114.615 256-256z" />
<glyph unicode="&#xe64e;" d="M838.016 373.952c-28.608 24.32-70.016 1.792-70.016-38.144v-79.808h-64c-32.96 0-75.264 55.68-112.576 104.768-22.592 29.76-46.656 60.8-73.6 87.232 26.88 26.432 50.944 57.472 73.6 87.232 37.312 49.088 79.616 104.768 112.576 104.768h64v-79.808c0-39.936 41.408-62.464 70.016-38.080l169.024 143.808c22.592 19.264 22.592 56.96 0 76.224l-169.024 143.808c-28.608 24.32-70.016 1.792-70.016-38.144v-79.808h-64c-96.448 0-159.104-82.496-214.528-155.328-34.112-44.8-76.544-100.672-105.472-100.672h-145.728c-22.208 38.080-63.040 64-110.272 64-70.72 0-128-57.28-128-128s57.28-128 128-128c47.232 0 88.064 25.92 110.272 64h145.728c28.928 0 71.36-55.872 105.472-100.672 55.424-72.832 118.080-155.328 214.528-155.328h64v-79.808c0-39.936 41.408-62.464 70.016-38.080l169.024 143.808c22.592 19.264 22.592 56.96 0 76.224l-169.024 143.808z" />
<glyph unicode="&#xe64f;" d="M914.752 624.448l-226.304 226.304 90.496 90.496c25.024 25.024 65.536 25.024 90.496 0l135.744-135.744c25.024-25.024 25.024-65.536 0-90.496l-90.432-90.56zM35.904 198.144l-35.904-262.144 262.144 35.904zM605.698 768.001l226.272-226.272-471.279-471.279-226.272 226.272 471.279 471.279zM409.542 776.709l-226.272-226.272-183.28 183.28 226.272 226.272 183.28-183.28zM1024.030 162.283l-226.272-226.272-183.28 183.28 226.272 226.272 183.28-183.28z" />
<glyph unicode="&#xe650;" d="M1024 448c0 81.728-46.912 161.6-129.28 220.992-8.128 79.68-40.768 160.96-107.008 209.536-80.768 59.264-188.288 50.56-275.712 11.392-85.952 38.528-191.36 47.808-271.872-8.64-68.736-48.192-102.592-131.136-110.912-212.288-71.232-51.392-129.216-129.984-129.216-220.992s58.048-169.6 129.28-220.992c8.128-79.68 40.768-160.96 107.008-209.536 80.768-59.264 188.288-50.56 275.712-11.392 85.952-38.528 191.36-47.744 271.872 8.64 68.736 48.192 102.592 131.072 110.848 212.288 82.368 59.392 129.28 139.264 129.28 220.992zM961.216 448c0-64.448-41.472-129.152-113.856-177.472l-0.064-0.064c-44.608-29.696-96.256-50.432-149.632-56.768 21.184 16.768 40.064 36.416 55.936 58.24l1.472-0.896 93.056 161.152c27.136 46.976 41.984 100.864 46.912 154.624 42.624-41.6 66.176-90.24 66.176-138.816zM350.208 276.032c-16.832 15.808-31.168 33.92-42.688 53.888v0c-41.792 72.256-41.792 163.84 0 236.096v0c41.792 72.384 120.896 118.144 204.48 118.144s162.624-45.76 204.48-118.144v0c41.792-72.256 41.792-163.84 0-236.096v0c-75.072-129.792-257.024-156.736-366.272-53.888-16.768 15.808 26.56-25.024 0 0zM650.24 858.752c183.168 0 214.72-233.664 157.504-367.040-3.968 26.688-11.52 52.8-22.464 77.44l1.472 0.832-93.12 161.216c-27.008 47.040-66.24 86.848-110.272 118.016 22.848 6.272 45.376 9.536 66.88 9.536zM287.424 836.992c112.064 64.704 264.512-17.28 334.592-110.976-34.944 13.888-72.448 20.992-110.016 20.992h-154.496c-54.208 0-108.288-14.080-157.376-36.672 14.848 57.664 45.248 102.4 87.296 126.656 24.96 14.464-42.048-24.256 0 0zM62.784 448c0 129.664 147.52 220.48 263.552 234.304-21.184-16.832-40.064-36.48-55.936-58.304l-1.536 0.896-93.056-161.216c-27.136-46.912-41.984-100.8-46.912-154.624-42.56 41.728-66.112 90.368-66.112 138.944zM373.76 37.248c-183.168 0-214.72 233.664-157.504 367.040 3.968-26.816 11.584-53.12 22.656-77.952l-1.472-0.832 92.864-160.832c27.072-46.912 66.304-86.72 110.336-117.888-22.848-6.272-45.376-9.536-66.88-9.536zM736.576 59.008c-112.128-64.704-264.512 17.344-334.592 110.976 34.944-13.888 72.448-20.992 110.016-20.992h154.496c54.208 0 108.352 14.080 157.376 36.672-14.848-57.664-45.248-102.4-87.296-126.656-24.96-14.464 42.048 24.256 0 0z" />
<glyph unicode="&#xe651;" d="M768 767.808h-128v64c0 35.392-28.672 64-64 64h-128c-35.328 0-64-28.672-64-64v-63.936h-128c-35.328 0-64-28.672-64-64s28.672-63.872 64-63.872h512c35.328 0 64 28.48 64 63.808s-28.672 64-64 64zM256 127.808c0-32.064 29.504-63.808 64-63.808h384c33.6 0 64 27.648 64 63.808v448h-512v-448z" />
<glyph unicode="&#xe652;" d="M895.744 704c-35.328 0-63.744-28.672-63.744-64v-448h-512.256c-35.328 0-64-28.672-64-64s28.672-64 64-64h576c35.328 0 64 28.672 64 64v512c0 35.328-28.608 64-64 64zM762.624 856.704c-9.408 22.976-31.424 39.104-57.088 39.104v0l-579.584-0.32c-25.664 0-47.68-16.128-57.088-39.040-3.136-7.68-4.864-16.064-4.864-24.896v-511.68c0-8.832 1.728-17.28 4.864-24.896 9.408-22.976 31.424-38.976 57.088-38.976h579.648c25.664 0 47.68 16.192 57.088 39.168 3.136 7.68 4.864 16.064 4.864 24.896v511.744c0 8.832-1.792 17.216-4.928 24.896zM576 447.808h-320.256v256.192h320.256v-256.192z" />
<glyph unicode="&#xe653;" d="M998.464 510.976l-102.464 102.144v218.88c0 35.328-28.672 64-64 64h-128c-24.832 0-45.76-14.592-56.384-35.264l-73.984 73.792c-34.048 33.984-89.152 33.984-123.264 0l-424.832-423.552c-17.024-16.96-25.536-39.168-25.536-61.44 0-34.304 20.288-65.536 60.864-65.536 8.192 0 32.32 0 67.136 0v-380.032c0-37.952 38.016-67.968 65.984-67.968h126.72c34.944 0 63.296 28.352 63.296 63.296v256.704c0 35.328 28.672 64 64 64h128c35.328 0 64-28.672 64-64v-256.704c0-34.944 28.352-63.296 63.296-63.296h128.704c40 0 64 30.016 64 64v384c31.936 0 54.72 0 64 0 30.72 0 64 20.48 64 64 0 20.032-4.544 40.832-25.536 62.976z" />
<glyph unicode="&#xe654;" d="M544 896c-229.76 0-416-186.24-416-416s186.24-416 416-416 416 186.24 416 416-186.24 416-416 416zM294.4 480c0 137.856 111.744 249.6 249.6 249.6 32.64 0 63.616-6.656 92.16-18.048l-323.712-323.712c-11.392 28.544-18.048 59.52-18.048 92.16zM544 230.4c-33.92 0-66.112 6.912-95.616 19.136l326.080 326.080c12.224-29.504 19.136-61.76 19.136-95.616 0-137.856-111.744-249.6-249.6-249.6z" />
<glyph unicode="&#xe655;" d="M985.024 542.4l-94.848 24.832c-18.24 4.736-33.216 17.792-40.384 35.2-1.024 2.432-2.048 4.928-3.008 7.36-7.296 17.344-5.888 37.184 3.648 53.44l49.472 84.608c11.904 20.352 8.256 45.824-7.936 62.912-5.632 5.952-11.392 11.712-17.344 17.344-17.088 16.192-42.56 19.84-62.848 7.936l-84.608-49.472c-16.256-9.536-36.032-10.944-53.44-3.648-2.432 1.024-4.864 2.048-7.36 3.008-17.408 7.040-30.4 22.016-35.136 40.256l-24.832 94.848c-5.952 22.784-26.56 38.208-50.112 38.848-8.192 0.192-16.32 0.192-24.512 0-23.552-0.64-44.096-16.064-50.112-38.848l-24.768-94.848c-4.8-18.24-17.792-33.216-35.2-40.384-2.432-0.96-4.928-1.984-7.36-3.008-17.344-7.296-37.184-5.824-53.376 3.648l-84.608 49.536c-20.352 11.84-45.824 8.256-62.912-8-5.952-5.632-11.712-11.392-17.344-17.344-16.192-17.024-19.84-42.56-7.936-62.848l49.472-84.608c9.536-16.256 10.944-36.032 3.648-53.44-0.96-2.432-1.984-4.864-3.008-7.296-7.168-17.472-22.144-30.464-40.384-35.2l-94.784-24.832c-22.784-5.952-38.272-26.56-38.848-50.112-0.192-8.192-0.192-16.32 0-24.512 0.576-23.552 16.064-44.16 38.848-50.112l94.848-24.832c18.24-4.8 33.216-17.728 40.384-35.2 0.96-2.368 1.92-4.864 2.944-7.296 7.296-17.408 5.888-37.184-3.648-53.44l-49.472-84.544c-11.904-20.352-8.256-45.824 7.936-62.912 5.632-5.952 11.392-11.712 17.344-17.344 17.088-16.192 42.56-19.84 62.912-7.936l84.608 49.472c16.256 9.536 36.032 10.944 53.44 3.648 2.432-1.024 4.864-2.048 7.36-3.008 17.408-7.168 30.4-22.144 35.2-40.384l24.832-94.848c5.952-22.784 26.56-38.208 50.112-38.848 8.064-0.192 16.256-0.192 24.384 0.064 23.552 0.576 44.16 16.064 50.112 38.848l24.832 94.848c4.8 18.24 17.792 33.216 35.264 40.384 2.432 1.024 4.928 1.984 7.36 3.008 17.344 7.232 37.12 5.824 53.376-3.648l84.608-49.472c20.352-11.904 45.824-8.256 62.912 8 5.952 5.632 11.712 11.392 17.344 17.344 16.256 17.088 19.84 42.56 7.936 62.912l-49.472 84.608c-9.536 16.256-10.944 36.032-3.648 53.44 1.024 2.432 2.048 4.864 3.008 7.296 7.168 17.408 22.144 30.4 40.384 35.2l94.848 24.832c22.784 5.952 38.208 26.56 38.848 50.112 0.192 8.192 0.192 16.32 0 24.512-0.768 23.36-16.192 43.968-38.976 49.92zM544.064 320c-87.808 0-160.064 71.872-160.064 160 0 88.192 72.256 160 160.064 160s159.936-71.808 159.936-160c0-88.128-72.128-160-159.936-160z" />
<glyph unicode="&#xe656;" d="M384.256 896l-193.792-0.32c-25.664 0-47.68-16.128-57.088-39.040-3.136-7.68-4.864-16.064-4.864-24.896v-703.744c0-8.832 1.728-17.28 4.864-24.896 9.408-22.976 31.424-39.104 57.088-39.104v0h193.792c34.176 0 63.744 28.672 63.744 64v64c0 35.328-29.568 64-63.744 64h-64.256v448h64.256c34.176 0 63.744 28.672 63.744 64v64c0 35.328-29.568 64-63.744 64zM834.048 895.936v0l-193.792 0.064c-34.24 0-64-28.672-64-64v-64c0-35.328 29.76-64 64-64h64v-448h-64c-34.24 0-64-28.672-64-64v-64c0-35.328 29.76-64 64-64l193.792 0.32c25.664 0 47.68 16.128 57.088 39.040 3.136 7.68 4.864 16.064 4.864 24.896v703.744c0 8.832-1.728 17.28-4.864 24.896-9.408 22.912-31.424 39.040-57.088 39.040z" />
<glyph unicode="&#xe657;" d="M511.296 832c-172.288 0-400.512-140.288-500.608-339.2-14.272-28.416-14.272-61.184 0-89.536 100.096-198.912 328.32-339.2 500.608-339.2 174.336 0 406.016 143.68 504.128 346.432 11.392 23.552 11.392 51.584 0 75.136-98.112 202.688-329.792 346.368-504.128 346.368zM512 256c-106.048 0-192 85.952-192 192s85.952 192 192 192 192-85.952 192-192-85.952-192-192-192z" />
<glyph unicode="&#xe658;" d="M320 832c0 35.392-28.608 64-64 64h-128.896c-34.816 0-63.104-28.224-63.104-63.104v-128.896c0-35.328 28.608-64 64-64s64 28.672 64 64v64h64c35.392 0 64 28.608 64 64zM256 640.384v-640.384h704v704h-640.384c-35.136 0-63.616-28.48-63.616-63.616zM384 576h448v-448h-448v448z" />
<glyph unicode="&#xe659;" d="M862.464 576h-30.464c0 176.704-143.296 320-320 320s-320-143.296-320-320h-30.464c-53.888 0-97.536-43.648-97.536-97.536v-380.864c0-53.952 43.648-97.6 97.536-97.6h700.864c53.952 0 97.6 43.648 97.6 97.536v380.928c0 53.888-43.648 97.536-97.536 97.536zM512 768c105.856 0 192-86.144 192-192h-384c0 105.856 86.144 192 192 192zM832 128h-640v320h640v-320zM512 192c35.2 0 64 28.8 64 64v64c0 35.2-28.8 64-64 64s-64-28.8-64-64v-64c0-35.2 28.8-64 64-64z" />
<glyph unicode="&#xe65a;" d="M896 384h-768c-35.328 0-64-28.672-64-64v-256.192c0-33.408 27.072-63.808 60.48-63.808h774.848c33.536 0 60.672 30.464 60.672 64v256c0 35.328-28.672 64-64 64zM832 128h-640v128h640v-128zM896 640h-768c-35.328 0-64-28.672-64-64v-0.192c0-33.408 27.072-60.48 60.48-60.48h774.848c33.536 0 60.672 27.136 60.672 60.672v0c0 35.328-28.672 64-64 64zM896 896h-768c-35.328 0-64-28.672-64-64v-0.192c0-33.408 27.072-60.48 60.48-60.48h774.848c33.536 0 60.672 27.136 60.672 60.672v0c0 35.328-28.672 64-64 64z" />
<glyph unicode="&#xe65b;" d="M896 896h-768c-35.328 0-64-28.672-64-64v-0.192c0-33.408 27.072-60.48 60.48-60.48h774.848c33.536 0 60.672 27.136 60.672 60.672v0c0 35.328-28.672 64-64 64zM896 128h-768c-35.328 0-64-25.344-64-60.672v-3.52c0-33.408 27.072-60.48 60.48-60.48h774.848c33.536 0 60.672 27.136 60.672 60.672v3.328c0 35.328-28.672 60.672-64 60.672zM896 640h-768c-35.328 0-64-28.672-64-64v-256.192c0-33.408 27.072-63.808 60.48-63.808h774.848c33.536 0 60.672 30.464 60.672 64v256c0 35.328-28.672 64-64 64zM832 384h-640v128h640v-128z" />
<glyph unicode="&#xe65c;" d="M896 256c-35.392 0-64-28.672-64-64v-64h-64c-35.392 0-64-28.608-64-64s28.608-64 64-64h128.896c34.816 0 63.104 28.288 63.104 63.104v128.896c0 35.328-28.608 64-64 64zM896.896 896h-128.896c-35.328 0-64-28.608-64-64s28.672-64 64-64h64v-64c0-35.392 28.608-64 64-64s64 28.608 64 64v128.896c0 34.88-28.288 63.104-63.104 63.104zM128 640c35.392 0 64 28.672 64 64v64h64c35.392 0 64 28.608 64 64s-28.608 64-64 64h-128.896c-34.816 0-63.104-28.224-63.104-63.104v-128.896c0-35.328 28.608-64 64-64zM256 128h-64v64c0 35.392-28.608 64-64 64s-64-28.608-64-64v-128.896c0-34.816 28.288-63.104 63.104-63.104h128.896c35.328 0 64 28.608 64 64s-28.672 64-64 64zM256 640v-384.384c0-35.136 28.48-63.616 63.616-63.616h384.384c35.136 0 64 28.864 64 64v384.384c0 35.136-28.48 63.616-63.616 63.616h-384.768c-35.136 0-63.616-28.864-63.616-64zM384 576h256v-256h-256v256z" />
<glyph unicode="&#xe65d;" d="M832 896h-640c-70.72 0-128-57.28-128-128v-640c0-70.72 57.28-128 128-128h640c70.72 0 128 57.28 128 128v640c0 70.72-57.28 128-128 128zM832 512h-256v256h256v-256zM448 768v-256h-256v256h256zM192 384h256v-256h-256v256zM576 128v256h256v-256h-256zM704 576v0c35.328 0 64 28.672 64 64v0c0 35.328-28.672 64-64 64v0c-35.328 0-64-28.672-64-64v0c0-35.328 28.672-64 64-64z" />
<glyph unicode="&#xe65e;" d="M877.76 330.624c-53.12-166.016-214.016-278.976-394.88-265.6-195.904 14.592-353.92 184.64-354.88 381.12-1.024 212.608 171.648 385.856 384 385.856 0 0 0 0 0 0v89.856c0 21.888 19.52 35.52 35.072 24.512l280.192-198.912c16.896-11.968 16.896-37.056 0-49.024l-280.192-198.912c-15.552-11.072-35.072 2.624-35.072 24.512v115.968l-30.656-6.144c-83.264-16.64-152.512-82.816-160.448-167.36-10.752-114.176 79.104-210.496 191.104-210.496 81.344 0 152.448 50.816 179.968 124.672 6.976 18.624 26.816 29.12 46.336 25.472l106.944-19.648c25.664-4.672 40.448-31.040 32.512-55.872z" />
<glyph unicode="&#xe65f;" d="M805.44 534.336l-244.864-285.632c-25.536-29.824-71.616-29.824-97.216 0l-244.8 285.632c-35.584 41.536-6.080 105.664 48.576 105.664h489.728c54.656 0 84.16-64.128 48.576-105.664z" />
<glyph unicode="&#xe660;" d="M996.352 518.464l-353.6 355.008c-51.392 51.584-130.752 8.832-130.752-70.464v-163.008h-448c-35.2 0-64-28.8-64-64v-256c0-35.2 28.8-64 64-64h448v-163.008c0-79.296 79.36-122.048 130.752-70.464l353.6 355.008c36.864 37.056 36.864 103.872 0 140.928z" />
</font>
</defs>
</svg>
