<?xml version="1.0" standalone="no"?>
<!DOCTYPE svg PUBLIC "-//W3C//DTD SVG 1.1//EN" "http://www.w3.org/Graphics/SVG/1.1/DTD/svg11.dtd" >
<svg xmlns="http://www.w3.org/2000/svg">
<metadata>Generated by IcoMoon</metadata>
<defs>
<font id="awb-icons" horiz-adv-x="1024">
<font-face units-per-em="1024" ascent="896" descent="-128" />
<missing-glyph horiz-adv-x="1024" />
<glyph unicode="&#x20;" horiz-adv-x="0" d="" />
<glyph unicode="&#xe4d8;" glyph-name="xing" d="M853.342 896h-682.656c-93.874 0-170.686-76.81-170.686-170.69v-682.622c0-93.938 76.812-170.688 170.686-170.688h682.656c93.876 0 170.658 76.75 170.658 170.69v682.62c0 93.88-76.782 170.69-170.658 170.69zM311.778 229.212h-111.264c-6.702 0-11.708 3.008-14.542 7.584-2.934 4.758-3.084 10.928 0 17.068l118.22 208.626c0.126 0.228 0.126 0.38 0 0.632l-75.23 130.232c-3.112 6.196-3.566 12.314-0.632 17.068 2.834 4.602 8.47 6.954 15.172 6.954h111.264c17.070 0 25.44-10.998 30.978-20.862 0 0 76.040-132.66 76.498-133.392-4.504-7.94-120.118-212.42-120.118-212.42-5.688-10.262-13.704-21.49-30.346-21.49zM837.912 745.462l-246.352-435.58c-0.15-0.23-0.15-0.51 0-0.734l156.862-286.59c3.112-6.168 3.186-12.442 0.226-17.194-2.83-4.576-8.066-7.104-14.766-7.104h-111.14c-17.044 0-25.566 11.326-31.080 21.192 0 0-157.696 289.292-158.1 290.046 7.888 13.96 247.594 439.046 247.594 439.046 5.968 10.724 13.174 21.192 29.788 21.192h112.406c6.702 0 11.962-2.53 14.792-7.106 2.932-4.752 2.856-11.022-0.23-17.168z" />
<glyph unicode="&#xe600;" glyph-name="pen" d="M212 318.592l-104.416-317.952 139.552 140.064c-9.6 24.224-7.232 65.6 12.384 85.184 26.272 26.304 69.536 25.696 95.808-0.608 26.304-26.304 27.712-70.336 1.44-96.64-20-20-63.936-21.152-88.448-10.784l-138.336-138.72 310.432 109.056 113.056 203.648-137.728 135.872-203.744-109.12zM735.392 788.832c0 0-192.352-192.32-222.016-222.016-29.728-29.696-45.248-141.408-45.248-141.408l86.24-86.272c0 0 108.896 15.552 140 46.688 31.136 31.104 222.016 222.016 222.016 222.016l-180.992 180.992z" />
<glyph unicode="&#xe601;" glyph-name="yahoo" d="M824.992 587.648c5.696 1.152 14.144 3.008 23.68 5.088h73.888l11.456 16.992c0.256 0.096 0.672 0.192 0.896 0.192l28.608 41.28c-0.384 0-1.088 0.064-1.376 0.064l3.008 4.448h-400.352l15.392-62.976h109.28l-183.84-165.952c-37.536 51.808-125.472 159.776-186.816 249.12h137.632v47.968l1.568 10.592c-0.416 0.064-1.184 0.192-1.568 0.192v4.32h-456.448v-63.008h135.36c52.544-41.056 253.472-292 261.824-317.024 3.328-23.456 6.432-161.76-3.424-172.224-19.744-20.864-109.856-15.328-131.584-16.864l-7.488-42.88c39.68-1.184 168.896 3.232 209.024 3.232 79.136 0 217.728 0.352 237.312-1.152l2.432 44.928c-20 3.424-129.088 0.448-144.16 3.872-3.328 21.792-7.072 167.36-3.68 182.432 15.072 43.456 244.352 220.608 269.504 227.36h-0.128zM891.456 243.456l61.312-4.832 71.456 275.936c-11.936 0.416-120.352 10.656-134.432 13.376l1.664-284.48zM880.864 199.232l0.352-67.328 31.008-2.72 33.568-2.464 9.856 65.952-35.36 1.696-39.424 4.864z" />
<glyph unicode="&#xe602;" glyph-name="pinterest" d="M447.808 218.72c-26.88-140.96-59.712-276.128-156.992-346.72-30.016 213.088 44.096 373.088 78.496 542.976-58.688 98.816 7.072 297.568 130.88 248.576 152.352-60.256-131.904-367.264 58.912-405.6 199.232-40 280.512 345.6 156.992 470.976-178.496 181.152-519.584 4.192-477.6-255.040 10.176-63.392 75.68-82.656 26.176-170.080-114.24 25.28-148.32 115.36-143.936 235.52 7.072 196.544 176.64 334.176 346.72 353.216 215.136 24.128 417.024-78.944 444.832-281.28 31.392-228.352-96.992-475.712-327.104-457.888-62.304 4.736-88.48 35.648-137.376 65.344z" />
<glyph unicode="&#xe603;" glyph-name="myspace" d="M708.896 891.392c56.192 13.344 118.592-2.816 159.232-44.032 50.72-47.872 65.12-128.064 36.256-190.944-22.24-47.904-67.328-85.76-119.168-96.352-33.472-5.568-69.088-5.024-100.8 8.864-51.744 21.184-90.784 69.632-102.464 124.224-2.208 22.848-2.208 46.24 1.024 69.056 13.504 62.368 64.16 114.112 125.92 129.184v0 0zM408.192 830.144c74.592 22.272 159.2-43.456 154.272-121.44 2.784-57.92-44.032-111.392-100.224-121.408-51.264-10.592-107.488 15.552-131.968 61.856-13.376 22.784-16.736 50.080-14.56 76.288 4.512 50.144 44.576 93.024 92.48 104.704v0 0zM174.336 801.728c58.432 11.168 118.624-38.976 116.896-98.56 3.904-61.28-58.976-114.72-118.624-101.888-57.856 7.744-96.832 72.416-80.128 127.52 10.528 37.344 43.424 67.392 81.856 72.928v0 0zM84.672 529.408c34.496 43.968 97.952 60.672 150.336 42.336 33.44-10.656 59.008-36.224 78.496-64.64 35.136 33.92 82.464 56.8 132 52.928 63.488 0 117.984-42.304 148.16-95.2 32.224 24.512 67.904 46.208 108.608 54.016 74.016 15.552 155.904-7.84 209.408-62.432 43.968-42.816 70.688-103.552 68.928-165.44 1.664-139.712 1.184-279.008 1.184-418.688-154.784 0-309.728 0-464.992 0 0 70.752 0.48 140.896 0 211.040-82.944 0.576-165.44 0-248.32 0.576 0 35.072 0 70.176-0.64 105.184-72.384 0-145.28 0-217.664 0v259.52c4.992 29.536 13.952 59.008 34.528 80.736v0 0.064z" />
<glyph unicode="&#xe604;" glyph-name="facebook" d="M575.87-128h-191.87v512h-128v176.45l128 0.058-0.208 103.952c0 143.952 39.034 231.54 208.598 231.54h141.176v-176.484h-88.23c-66.032 0-69.206-24.656-69.206-70.684l-0.262-88.324h158.69l-18.704-176.45-139.854-0.058-0.13-512z" />
<glyph unicode="&#xe606;" glyph-name="feed, rss" d="M136.294 145.070c-75.196 0-136.292-61.334-136.292-136.076 0-75.154 61.1-135.802 136.292-135.802 75.466 0 136.494 60.648 136.494 135.802-0.002 74.742-61.024 136.076-136.494 136.076zM0.156 548.070v-196.258c127.784 0 247.958-49.972 338.458-140.512 90.384-90.318 140.282-211.036 140.282-339.3h197.122c-0.002 372.82-303.282 676.070-675.862 676.070zM0.388 896v-196.356c455.782 0 826.756-371.334 826.756-827.644h196.856c0 564.47-459.254 1024-1023.612 1024z" />
<glyph unicode="&#xe607;" glyph-name="vimeo" d="M0 587.63l41.594-54.544c0 0 85.77 67.608 114.36 33.802 28.588-33.802 137.736-441.956 174.17-517.246 31.8-66.030 119.518-153.32 215.714-90.982 96.136 62.34 415.84 335.286 473.066 657.616 57.18 322.226-384.72 254.726-431.53-26.010 116.99 70.236 179.436-28.538 119.57-140.372-59.758-111.724-114.36-184.592-142.952-184.592-28.538 0-50.49 74.768-83.188 205.446-33.798 135.102-33.592 378.46-174.116 350.87-132.518-26.012-306.688-233.988-306.688-233.988z" />
<glyph unicode="&#xe608;" glyph-name="flickr" d="M0 352c0 123.712 100.288 224 224 224s224-100.288 224-224c0-123.712-100.288-224-224-224s-224 100.288-224 224zM576 352c0 123.712 100.288 224 224 224s224-100.288 224-224c0-123.712-100.288-224-224-224s-224 100.288-224 224z" />
<glyph unicode="&#xe609;" glyph-name="dribbble" d="M512.002-128c-282.32 0-512.002 229.682-512.002 512s229.682 512 512.002 512c282.322 0 511.998-229.682 511.998-512s-229.676-512-511.998-512zM943.798 313.914c-14.962 4.72-135.364 40.632-272.41 18.698 57.204-157.186 80.478-285.208 84.958-311.808 98.114 66.336 167.958 171.426 187.452 293.11zM682.832-19.238c-6.506 38.37-31.898 172.090-93.298 331.64-0.96-0.328-1.922-0.64-2.88-0.972-246.67-85.958-335.216-257.016-343.086-273.104 74.15-57.824 167.336-92.32 268.436-92.32 60.58 0 118.318 12.39 170.828 34.756zM187.098 90.922c9.908 16.96 129.93 215.684 355.476 288.594 5.704 1.84 11.448 3.57 17.236 5.2-10.98 24.844-22.94 49.714-35.456 74.216-218.398-65.36-430.324-62.63-449.46-62.236-0.132-4.442-0.222-8.89-0.222-13.366 0-112.32 42.58-214.874 112.426-292.408zM83.912 472.904c19.558-0.26 199.736-1.042 404.302 53.282-72.46 128.812-150.612 237.11-162.142 252.92-122.348-57.708-213.802-170.496-242.16-306.202zM409.518 808.5c12.088-16.184 91.518-124.348 163.18-256.014 155.508 58.284 221.34 146.77 229.208 157.974-77.23 68.518-178.782 110.2-289.902 110.2-35.29 0-69.6-4.232-102.486-12.16zM850.522 659.888c-9.216-12.474-82.504-106.418-244.202-172.434 10.178-20.832 19.934-42.018 29.016-63.344 3.216-7.56 6.354-15.084 9.418-22.57 145.518 18.298 290.104-11.028 304.526-14.078-0.968 103.224-37.85 198.010-98.758 272.426z" />
<glyph unicode="&#xe60b;" glyph-name="blogger" d="M957.796 512h-57.406c-35.166 0-65.988 29.742-68.39 64v0c0.004 182.668-147.258 320-331.19 320h-167.824c-183.812 0-332.856-148-332.986-330.666v-362.798c0-182.654 149.174-330.536 332.984-330.536h358.42c183.948 0 332.596 147.882 332.596 330.536v234.382c0 36.502-29.44 75.082-66.204 75.082zM320 640h192c35.2 0 64-28.8 64-64s-28.8-64-64-64h-192c-35.2 0-64 28.8-64 64s28.8 64 64 64zM704 128h-384c-35.2 0-64 28.8-64 64s28.8 64 64 64h384c35.2 0 64-28.8 64-64s-28.8-64-64-64z" />
<glyph unicode="&#xe60c;" glyph-name="soundcloud" d="M891.96 381.796c-18.086 0-35.348-3.52-51.064-9.856-10.506 114.358-110.29 204.060-232 204.060-29.786 0-58.682-5.63-84.318-15.164-9.96-3.702-12.578-7.52-12.578-14.916v-402.714c0-7.766 6.24-14.234 14.124-14.996 0.336-0.034 363.536-0.21 365.89-0.21 72.904 0 131.986 56.816 131.986 126.894s-59.134 126.902-132.040 126.902zM400 128h32l16 224.22-16 223.78h-32l-16-223.78zM304 128h-32l-16 162.75 16 157.25h32l16-160zM144 128h32l16 128-16 128h-32l-16-128zM16 192h32l16 64-16 64h-32l-16-64z" />
<glyph unicode="&#xe60d;" glyph-name="reddit" d="M256 256c0 35.346 28.654 64 64 64s64-28.654 64-64c0-35.346-28.654-64-64-64s-64 28.654-64 64zM640 256c0 35.346 28.654 64 64 64s64-28.654 64-64c0-35.346-28.654-64-64-64s-64 28.654-64 64zM643.112 119.222c16.482 12.986 40.376 10.154 53.364-6.332s10.152-40.378-6.334-53.366c-45.896-36.158-115.822-59.524-178.142-59.524-62.322 0-132.248 23.366-178.144 59.522-16.486 12.99-19.32 36.882-6.332 53.368 12.99 16.482 36.882 19.318 53.366 6.332 26.422-20.818 78.722-43.222 131.11-43.222s104.688 22.404 131.112 43.222zM1024 384c0 70.692-57.308 128-128 128-48.116 0-89.992-26.57-111.852-65.82-65.792 35.994-145.952 59.246-233.28 64.608l76.382 171.526 146.194-42.2c13.152-37.342 48.718-64.114 90.556-64.114 53.020 0 96 42.98 96 96s-42.98 96-96 96c-36.56 0-68.342-20.442-84.554-50.514l-162.906 47.024c-18.224 5.258-37.538-3.722-45.252-21.052l-103.77-233.026c-85.138-5.996-163.262-29.022-227.636-64.236-21.864 39.25-63.766 65.804-111.882 65.804-70.692 0-128-57.308-128-128 0-52.312 31.402-97.254 76.372-117.102-8.070-24.028-12.372-49.104-12.372-74.898 0-176.73 200.576-320 448-320 247.422 0 448 143.27 448 320 0 25.792-4.3 50.862-12.368 74.886 44.97 19.85 76.368 64.802 76.368 117.114zM864 708c19.882 0 36-16.118 36-36s-16.118-36-36-36-36 16.118-36 36 16.118 36 36 36zM64 384c0 35.29 28.71 64 64 64 25.508 0 47.572-15.004 57.846-36.646-33.448-25.366-61.166-54.626-81.666-86.738-23.524 9.47-40.18 32.512-40.18 59.384zM512-52c-205.45 0-372 109.242-372 244s166.55 244 372 244c205.45 0 372-109.242 372-244s-166.55-244-372-244zM919.82 324.616c-20.5 32.112-48.218 61.372-81.666 86.738 10.276 21.642 32.338 36.646 57.846 36.646 35.29 0 64-28.71 64-64 0-26.872-16.656-49.914-40.18-59.384z" />
<glyph unicode="&#xe60e;" glyph-name="paypal" d="M880.634 765.226c25.698-12.576 48.094-30.486 64.502-52.482 34.536-46.3 44.236-109.372 28.836-187.466-15.56-79.026-50.416-145.734-101.166-194.044-9.282-9.702-19.222-18.746-29.804-27.080-54.356-42.802-122.998-65.428-198.508-65.428h-240.060l-64.564-302.726h-132.424l10.086 46.3h46.128l64.564 302.726h188.27c180.25 0 330.938 111.078 371.258 299.936 45.722 213.834-107.598 311.038-239.41 311.038h-449.278l-199.064-913.7h152.032l-24.032-110.3h263.66l64.564 302.726h188.27c180.25 0 330.938 111.078 371.258 299.936 33.716 157.68-40.804 251.932-135.118 290.564zM422.344 709.918h129.132c64.592 0 107.602-55.538 88.786-124.956-16.136-69.44-83.386-124.976-150.64-124.976h-123.758l56.48 249.932z" />
<glyph unicode="&#xe60f;" glyph-name="linkedin" d="M231.744 779.136c0-60.448-44.64-109.344-118.048-109.344-69.056 0-113.696 48.928-113.696 109.344 0 61.856 46.112 109.376 116.608 109.376s113.728-47.552 115.136-109.376zM5.824-120.448v703.808h218.752v-703.808h-218.752zM355.488 358.816c0 87.776-2.912 161.216-5.792 224.512h189.984l10.144-97.888h4.288c28.8 46.112 99.328 113.696 217.344 113.696 143.936 0 251.84-96.448 251.84-303.712v-415.936h-218.72v390.016c0 90.752-31.712 152.608-110.88 152.608-60.448 0-96.352-41.696-112.224-81.984-5.792-14.432-7.2-34.56-7.2-54.688v-405.952h-218.752l-0.032 479.328z" />
<glyph unicode="&#xe610;" glyph-name="digg" d="M702.432 180.128h51.872v-212.832h-51.872v212.832zM246.944 193.44h-68.192c-74.912 0-136.192-57.504-136.192-127.712v-95.776c0-17.6 15.328-31.936 34.080-31.936h272.384c18.752 0 34.080 14.336 34.080 31.936v95.776c0.032 70.208-61.248 127.712-136.16 127.712zM340.576-19.424h-255.424v85.152c0 46.944 41.984 85.12 93.632 85.12h68.192c51.616 0 93.632-38.176 93.632-85.12v-85.152zM212.8 739.744c-91.168 0-212.8-121.6-212.8-121.6v-298.752h425.728v298.752c0 0-121.664 121.6-212.928 121.6zM383.136 361.952h-340.544v237.984c45.28 41.824 121.728 97.248 170.24 97.248 48.608 0 125.056-55.392 170.336-97.248v-237.984zM510.848 832v-383.136h383.136v383.136h-383.136zM851.424 491.424h-297.984v297.984h297.984v-297.984zM894.016 362.368h43.488v-424.384h-43.488v424.384zM467.36 362.368h43.488v-424.384h-43.488v424.384zM469.6-18.496h437.28v-43.488h-437.28v43.488zM384.48 619.136h159.68v-43.488h-159.68v43.488zM862.016 619.136h159.68v-43.488h-159.68v43.488zM906.88 362.368h114.848v-43.488h-114.848v43.488zM396.032 362.368h114.816v-43.488h-114.816v43.488zM978.208 604.512h43.488v-282.048h-43.488v282.048zM384.48 604.512h43.488v-285.632h-43.488v285.632z" />
<glyph unicode="&#xe611;" glyph-name="dropbox" d="M304.448 859.168l-304.448-189.664 208.576-174.848 303.36 197.056-207.488 167.456zM696.032 54.368c-5.472 0-10.848 1.856-15.232 5.536l-168.864 140.032-168.864-140.096c-4.384-3.616-9.792-5.536-15.2-5.536-4.544 0-9.088 1.248-13.024 3.84l-125.12 81.92v-48.384l322.176-202.848 322.176 202.912v48.384l-125.088-81.92c-3.904-2.592-8.416-3.84-12.96-3.84v0zM1023.84 669.504l-304.384 189.632-207.52-167.424 303.328-196.992 208.576 174.784zM511.936 305.12l188.064-156.16 300.864 196.704-185.6 148.96-303.328-189.504zM323.872 149.024l188.064 156.16-303.328 189.536-185.568-149.024 300.832-196.672z" />
<glyph unicode="&#xe613;" glyph-name="tumblr" d="M576.032 448l-0.002-234.184c0-59.418-0.77-93.656 5.53-110.5 6.25-16.754 21.918-34.146 38.99-44.202 22.684-13.588 48.542-20.376 77.708-20.376 51.854 0 82.478 6.848 133.742 40.54v-153.944c-43.7-20.552-81.866-32.594-117.324-40.922-35.5-8.242-73.86-12.406-115.064-12.406-46.828 0-74.456 5.886-110.41 17.656-35.958 11.868-66.66 28.806-92.020 50.54-25.45 21.922-43.022 45.208-52.848 69.832-9.826 24.636-14.716 60.414-14.716 107.244v359.1h-137.426v145.006c40.208 13.042 85.164 31.788 113.78 56.152 28.754 24.45 51.766 53.706 69.106 87.944 17.392 34.146 29.348 77.712 35.872 130.516h165.084l-0.002-255.996h255.968v-192h-255.968z" />
<glyph unicode="&#xe614;" glyph-name="grid" d="M256 512h128v128h-128v-128zM448 512h128v128h-128v-128zM640 640v-128h128v128h-128zM256 320h128v128h-128v-128zM448 320h128v128h-128v-128zM640 320h128v128h-128v-128zM256 128h128v128h-128v-128zM448 128h128v128h-128v-128zM640 128h128v128h-128v-128z" />
<glyph unicode="&#xe616;" glyph-name="mail" d="M1023.040 55.488c0-50.24-41.152-91.328-91.392-91.328h-840.352c-50.272 0.032-91.296 41.088-91.296 91.328v621.152c0 50.24 41.024 91.36 91.296 91.36h840.32c50.24 0 91.392-41.12 91.392-91.36v-621.152zM931.616 694.944h-840.32c-9.76 0-18.24-8.576-18.24-18.304 0-65.088 32.448-121.536 83.904-162.112 76.48-59.968 152.992-120.448 228.832-180.96 30.304-24.512 85.088-77.12 125.024-77.12h1.184c40 0 94.848 52.64 124.992 77.12 75.936 60.512 152.512 120.992 229.024 180.96 37.088 29.12 83.936 92.512 83.936 140.96 0 14.336 3.36 39.456-18.336 39.456zM949.952 494.016c-11.968-13.728-25.12-26.304-39.456-37.696-81.6-62.816-163.744-126.816-243.2-193.024-42.752-35.968-95.904-79.936-155.296-79.936h-1.152c-59.296 0-112.448 43.936-155.296 79.936-79.328 66.176-161.44 130.208-243.2 193.024-14.208 11.36-27.296 23.968-39.296 37.696v-438.528c0-9.632 8.48-18.24 18.24-18.24h840.32c9.696 0 18.304 8.64 18.304 18.24v438.528z" />
<glyph unicode="&#xe617;" glyph-name="forrst" d="M957.888-95.104l-423.648 976.992c-3.712 8.576-12.192 14.112-21.536 14.112s-17.824-5.536-21.504-14.080l-425.088-976.992c-3.168-7.328-2.432-15.68 1.92-22.304 4.352-6.592 11.712-10.624 19.616-10.624h360.352v213.376l-127.968 42.656c-17.696 0-32 14.304-32 32s14.304 32 32 32l127.968-42.656v202.624c0 17.696 14.304 32 32 32h64c17.696 0 32-14.304 32-32v-48l95.968 48c17.696 0 32-14.304 32-32s-14.304-32-32-32l-95.968-47.968v-112l159.968 96c17.696 0 32-14.304 32-32s-14.304-32-32-32l-159.968-96v-192.032h360.352c7.936 0 15.296 4 19.616 10.624 4.352 6.592 5.024 15.008 1.92 22.272z" />
<glyph unicode="&#xe618;" glyph-name="skype" d="M975.31 318.062c2.812 20.8 4.43 41.946 4.43 63.472 0 258.31-210.542 467.744-470.206 467.744-25.808 0-51.11-2.12-75.732-6.16-44.144 28.768-96.684 45.534-153.224 45.534-155.046 0-280.578-125.616-280.578-280.612 0-56.396 16.598-108.788 45.18-152.778-3.85-24.034-5.818-48.646-5.818-73.718 0-258.352 210.434-467.764 470.17-467.764 29.314 0 57.854 2.854 85.592 7.866 43.1-26.738 93.868-42.296 148.292-42.296 155.004-0.002 280.584 125.646 280.584 280.626-0.006 58.586-17.92 113.056-48.69 158.086zM553.48 36.808c-149.41-7.784-219.328 25.274-283.378 85.382-71.53 67.134-42.796 143.708 15.48 147.602 58.244 3.888 93.214-66.026 124.3-85.472 31.048-19.376 149.188-63.52 211.588 7.816 67.952 77.656-45.188 117.84-128.118 130.004-118.406 17.532-267.9 81.584-256.27 207.814 11.632 126.148 107.164 190.828 207.7 199.952 128.154 11.634 211.582-19.414 277.57-75.72 76.3-65.058 35.016-137.788-13.598-143.64-48.424-5.818-102.808 107.008-209.582 108.704-110.054 1.728-184.434-114.522-48.572-147.568 135.932-33.010 281.5-46.572 333.922-170.834 52.458-124.274-81.508-256.25-231.042-264.040z" />
<glyph unicode="&#xe619;" glyph-name="link" d="M953.396 821.358l-4.028 4.042c-94.148 94.134-248.194 94.134-342.326 0l-218.106-218.136c-94.134-94.132-94.134-248.176 0-342.31l4.026-4.026c7.832-7.848 16.146-14.924 24.736-21.458l79.848 79.85c-9.302 5.494-18.126 12.072-26.116 20.060l-4.042 4.042c-51.114 51.098-51.114 134.272 0 185.39l218.128 218.112c51.116 51.118 134.274 51.118 185.386 0l4.042-4.024c51.1-51.116 51.1-134.292 0-185.39l-98.686-98.686c17.132-42.308 25.248-87.4 24.538-132.386l152.604 152.604c94.134 94.136 94.134 248.178-0.004 342.316zM631.042 507.066c-7.832 7.832-16.146 14.922-24.736 21.44l-79.848-79.832c9.304-5.496 18.126-12.074 26.116-20.062l4.042-4.040c51.116-51.116 51.116-134.272 0-185.388l-218.13-218.134c-51.118-51.102-134.276-51.102-185.388 0l-4.042 4.042c-51.098 51.12-51.098 134.276 0 185.388l98.688 98.686c-17.134 42.306-25.246 87.402-24.538 132.386l-152.602-152.598c-94.136-94.132-94.136-248.178 0-342.324l4.026-4.032c94.152-94.128 248.192-94.128 342.328 0l218.11 218.118c94.134 94.132 94.134 248.194 0 342.326l-4.026 4.024z" />
<glyph unicode="&#xe61a;" glyph-name="user" d="M889.366 158.080c-44.8 58.454-98.986 96.426-176.618 117.952l-72.748-254.698c0-23.466-19.2-42.666-42.666-42.666s-42.666 19.2-42.666 42.666v202.666c0 29.44-23.894 53.334-53.334 53.334s-53.334-23.894-53.334-53.334v-202.666c0-23.466-19.2-42.666-42.666-42.666s-42.666 19.2-42.666 42.666l-72.746 254.698c-77.654-21.76-131.84-59.498-176.64-117.952-17.708-23.040-27.308-69.334-27.948-94.080v-106.666c0-47.146 38.186-85.334 85.334-85.334h661.334c47.146 0 85.334 38.186 85.334 85.334v106.666c-0.642 24.746-10.242 71.040-27.97 94.080zM501.334 362.666c143.786 0 224 183.040 224 307.628s-100.268 225.706-224 225.706-224-101.12-224-225.706 77.652-307.628 224-307.628z" />
<glyph unicode="&#xe61b;" glyph-name="user2" d="M889.366 158.080c-24.96 32.618-52.886 58.88-86.4 79.552-51.82-114.966-167.446-194.966-301.632-194.966s-249.814 80-301.674 194.986c-33.28-20.694-61.418-46.934-86.378-79.552-17.708-23.060-27.33-69.354-27.948-94.1 0.214-6.4 0-106.666 0-106.666 0-47.146 38.186-85.334 85.334-85.334h661.334c47.146 0 85.334 38.186 85.334 85.334 0 0-0.214 100.266 0 106.666-0.642 24.746-10.242 71.040-27.97 94.080zM385.472 293.334c-17.898-1.92-34.986-4.266-51.178-7.040-18.56-4.694-32.64-21.546-32.64-41.6 0-8.32 2.346-15.766 6.4-22.4 44.8-57.388 114.752-94.294 193.28-94.294 76.586 0 144.854 34.986 189.866 89.814 5.952 7.254 9.366 16.64 9.366 26.88 0 20.906-15.146 38.4-35.2 42.026-16.618 3.008-34.134 5.568-52.886 7.488-24.106 4.458-42.24 21.526-42.24 47.126 0 23.466 17.472 41.366 40.96 44.374 2.326 0.426 7.872 0.618 7.872 0.618 114.794 8.128 192.874 31.382 244.266 75.754 7.062 7.466 11.328 17.494 11.328 28.586 0 22.186-16.854 40.32-38.4 42.454-63.36 12.8-110.932 65.28-110.932 128.214v8.96c0 124.586-100.268 225.706-224 225.706s-224-101.12-224-225.706v-8.96c0-62.934-47.574-115.414-110.934-128.214-21.546-2.134-38.4-20.266-38.4-42.454 0-11.094 4.266-21.12 11.286-28.586 51.648-44.374 129.706-67.626 244.714-75.754 3.414 0 6.634-0.214 9.6-0.618 23.872-3.414 38.806-20.48 38.806-44.374 0.020-27.308-20.438-44.8-46.934-48z" />
<glyph unicode="&#xe61c;" glyph-name="minus" d="M778.189 448h-532.429c-28.314 0-30.72-22.938-30.72-51.2s2.406-51.2 30.72-51.2h532.429c28.314 0 30.771 22.938 30.771 51.2s-2.458 51.2-30.771 51.2z" />
<glyph unicode="&#xe61d;" glyph-name="plus" d="M778.189 448h-215.040v215.040c0 28.262-22.886 30.72-51.2 30.72-28.262 0-51.2-2.406-51.2-30.72v-215.040h-214.989c-28.314 0-30.72-22.938-30.72-51.2s2.406-51.2 30.72-51.2h214.989v-215.040c0-28.262 22.938-30.72 51.2-30.72 28.314 0 51.2 2.458 51.2 30.72v215.040h215.040c28.314 0 30.771 22.938 30.771 51.2s-2.458 51.2-30.771 51.2z" />
<glyph unicode="&#xe61e;" glyph-name="arrow-left" d="M737.229 16.998c13.722-13.875 13.722-36.25 0-50.125s-35.891-13.875-49.613 0l-400.896 404.838c-13.722 13.875-13.722 36.301 0 50.125l400.896 404.89c13.722 13.875 35.891 13.875 49.613 0s13.722-36.25 0-50.125l-365.568-379.802 365.568-379.802z" />
<glyph unicode="&#xe61f;" glyph-name="arrow-down" d="M132.163 609.252c-13.875 13.722-36.301 13.722-50.125 0-13.824-13.67-13.824-35.891 0-49.613l404.89-400.896c13.875-13.722 36.25-13.722 50.125 0l404.89 400.896c13.824 13.722 13.875 35.891 0 49.613s-36.352 13.722-50.125 0.051l-379.853-365.619-379.802 365.568z" />
<glyph unicode="&#xe620;" glyph-name="uniE620" d="M286.704 16.998c-13.722-13.875-13.722-36.25 0-50.125s35.891-13.875 49.613 0l400.896 404.838c13.722 13.875 13.722 36.301 0 50.125l-400.896 404.89c-13.722 13.875-35.891 13.875-49.613 0s-13.722-36.25 0-50.125l365.568-379.802-365.568-379.802z" />
<glyph unicode="&#xe621;" glyph-name="arrow-down2" d="M146.746 274.746l320-320c24.992-24.994 65.516-24.994 90.51 0l320 320c24.992 24.994 24.992 65.516 0 90.51-24.994 24.994-65.516 24.994-90.51 0l-210.746-210.746v613.49c0 35.346-28.654 64-64 64s-64-28.654-64-64v-613.49l-210.746 210.746c-12.496 12.496-28.876 18.744-45.254 18.744s-32.758-6.248-45.254-18.744c-24.994-24.994-24.994-65.516 0-90.51z" />
<glyph unicode="&#xe622;" glyph-name="youtube" d="M832 768h-640c-105.6 0-192-86.4-192-192v-384c0-105.6 86.4-192 192-192h640c105.6 0 192 86.4 192 192v384c0 105.6-86.4 192-192 192zM384 128v512l320-256-320-256z" />
<glyph unicode="&#xe623;" glyph-name="list" d="M107.52 768c14.464 0 28.032-2.944 40.768-8.576 12.736-5.76 24.064-13.312 33.792-22.72 9.856-9.472 17.6-20.8 23.296-34.176 5.76-13.312 8.576-27.136 8.576-41.6 0-15.168-2.816-29.184-8.576-42.048-5.632-12.864-13.44-24.064-23.296-33.472-9.728-9.536-21.184-17.024-34.048-22.592-12.864-5.504-26.496-8.384-40.512-8.384-15.168 0-29.184 2.816-42.048 8.384-12.992 5.568-24.192 13.056-33.6 22.528-9.408 9.344-16.96 20.608-22.72 33.472s-8.576 26.88-8.576 42.048c0 14.528 2.816 28.288 8.576 41.6 5.76 13.376 13.312 24.704 22.72 34.176 9.408 9.408 20.608 16.96 33.6 22.784 12.864 5.632 26.88 8.576 42.048 8.576zM107.52 459.072c14.464 0 28.032-2.816 40.768-8.576 12.736-5.632 24.064-13.376 33.792-22.72 9.856-9.344 17.6-20.8 23.296-34.048 5.76-13.376 8.576-27.136 8.576-41.6 0-15.168-2.816-29.184-8.576-42.048-5.632-13.056-13.44-24.256-23.296-33.6-9.728-9.344-21.184-17.088-34.048-22.72-12.864-5.76-26.496-8.64-40.512-8.64-15.168 0-29.184 2.88-42.048 8.64-12.992 5.632-24.192 13.312-33.6 22.656-9.408 9.408-16.96 20.608-22.72 33.664-5.76 12.864-8.576 26.88-8.576 42.048 0 14.464 2.816 28.224 8.576 41.6 5.76 13.248 13.312 24.64 22.72 34.048s20.608 17.088 33.6 22.784c12.864 5.696 26.88 8.512 42.048 8.512zM107.52 149.824c14.464 0 28.032-2.88 40.768-8.384 12.736-5.568 24.064-13.12 33.792-22.528 9.856-9.344 17.6-20.736 23.296-34.112 5.76-13.248 8.576-27.136 8.576-41.472 0-15.104-2.816-29.312-8.576-42.176-5.632-12.992-13.44-24.128-23.296-33.536-9.728-9.344-21.184-17.024-34.048-22.656-12.864-5.76-26.496-8.64-40.512-8.64-29.504 0-54.72 10.368-75.648 31.232-20.928 20.928-31.36 46.144-31.36 75.776 0 14.4 2.816 28.224 8.576 41.472 5.76 13.376 13.312 24.768 22.72 34.112 9.344 9.344 20.608 16.96 33.6 22.528 12.928 5.504 26.944 8.384 42.112 8.384zM980.288 735.808c11.456 0 21.312-4.096 29.632-12.48 8.384-8.32 12.544-18.56 12.544-30.72v-63.232c0-12.224-4.16-22.528-12.544-30.72-8.32-8.256-18.176-12.416-29.632-12.416h-647.104c-12.16 0-22.4 4.16-30.72 12.416-8.256 8.256-12.416 18.56-12.416 30.72v63.232c0 12.16 4.16 22.4 12.416 30.72 8.384 8.384 18.56 12.48 30.72 12.48h647.104zM980.288 426.944c11.456 0 21.312-4.16 29.632-12.416 8.384-8.384 12.544-18.688 12.544-30.784v-63.232c0-12.224-4.16-22.528-12.544-30.848-8.32-8.256-18.176-12.416-29.632-12.416h-647.104c-12.16 0-22.4 4.16-30.72 12.416-8.256 8.384-12.48 18.624-12.48 30.912v63.232c0 12.096 4.16 22.4 12.416 30.784 8.384 8.192 18.56 12.416 30.72 12.416l647.168-0.064zM980.288 118.080c11.456 0 21.312-4.16 29.632-12.416 8.384-8.256 12.544-18.56 12.544-30.656v-63.232c0-12.224-4.16-22.4-12.544-30.272-8.32-7.936-18.176-11.904-29.632-11.904h-647.104c-12.16 0-22.4 3.968-30.72 11.904-8.256 7.872-12.416 17.984-12.416 30.272v63.232c0 12.096 4.16 22.464 12.416 30.656 8.384 8.256 18.56 12.416 30.72 12.416h647.104z" />
<glyph unicode="&#xe624;" glyph-name="image" d="M0 768v-832h1024v832h-1024zM960 0h-896v704h896v-704zM704 544c0 53.019 42.981 96 96 96s96-42.981 96-96c0-53.019-42.981-96-96-96s-96 42.981-96 96zM896 64h-768l192 512 256-320 128 96z" />
<glyph unicode="&#xe625;" glyph-name="images" d="M128 640v-640h896v640h-896zM960 106.666l-128 213.334-145.066-120.888-110.934 184.888-384-320v512h768v-469.334zM256 416c0 53.019 42.981 96 96 96s96-42.981 96-96c0-53.019-42.981-96-96-96s-96 42.981-96 96zM896 768h-896v-640h64v576h832z" />
<glyph unicode="&#xe627;" glyph-name="quotes-left" d="M225 448c123.712 0 224-100.29 224-224 0-123.712-100.288-224-224-224s-224 100.288-224 224l-1 32c0 247.424 200.576 448 448 448v-128c-85.474 0-165.834-33.286-226.274-93.726-11.634-11.636-22.252-24.016-31.83-37.020 11.438 1.8 23.16 2.746 35.104 2.746zM801 448c123.71 0 224-100.29 224-224 0-123.712-100.29-224-224-224s-224 100.288-224 224l-1 32c0 247.424 200.576 448 448 448v-128c-85.474 0-165.834-33.286-226.274-93.726-11.636-11.636-22.254-24.016-31.832-37.020 11.44 1.8 23.16 2.746 35.106 2.746z" />
<glyph unicode="&#xe628;" glyph-name="film" d="M128 704v-704h704v704h-704zM256 64h-64v64h64v-64zM256 160h-64v64h64v-64zM256 256h-64v64h64v-64zM256 384h-64v64h64v-64zM256 480h-64v64h64v-64zM256 576h-64v64h64v-64zM640 64h-320v256h320v-256zM640 384h-320v256h320v-256zM768 64h-64v64h64v-64zM768 160h-64v64h64v-64zM768 256h-64v64h64v-64zM768 384h-64v64h64v-64zM768 480h-64v64h64v-64zM768 576h-64v64h64v-64z" />
<glyph unicode="&#xe629;" glyph-name="headphones" d="M192 317.714v-443.43c10.454-1.496 21.134-2.286 32-2.286h32v448.002h-32c-10.866 0-21.546-0.79-32-2.286zM768 320v-448h32c10.868 0 21.546 0.79 32 2.286v443.428c-10.454 1.496-21.132 2.286-32 2.286h-32zM1024 384c0 282.77-229.23 512-512 512s-512-229.23-512-512c0-61.418 10.828-120.306 30.656-174.874-19.472-33.202-30.656-71.852-30.656-113.126 0-89.354 52.326-166.478 128-202.432v404.864c-20.126-9.562-38.58-22.060-54.858-36.904-5.992 29.22-9.142 59.478-9.142 90.472 0 247.424 200.576 448 448 448s448-200.576 448-448c0-30.994-3.148-61.252-9.142-90.472-16.28 14.844-34.73 27.342-54.858 36.904v-404.864c75.676 35.954 128 113.078 128 202.432 0 41.274-11.184 79.924-30.656 113.126 19.828 54.568 30.656 113.456 30.656 174.874z" />
<glyph unicode="&#xe62a;" glyph-name="bubbles" horiz-adv-x="1152" d="M480 768c-50.666 0-99.582-7.95-145.386-23.628-42.924-14.694-81.114-35.436-113.502-61.646-60.044-48.59-93.112-110.802-93.112-175.174 0-35.99 10.066-70.948 29.92-103.898 20.686-34.34 51.898-65.794 90.26-90.958 30.44-19.968 50.936-51.952 56.362-87.95 0.902-5.99 1.63-12.006 2.18-18.032 2.722 2.52 5.424 5.114 8.114 7.794 24.138 24.040 56.688 37.312 90.322 37.312 5.348 0 10.718-0.336 16.094-1.018 19.36-2.452 39.124-3.696 58.748-3.696 50.666 0 99.58 7.948 145.384 23.628 42.926 14.692 81.116 35.434 113.504 61.644 60.046 48.59 93.112 110.802 93.112 175.174s-33.066 126.582-93.112 175.174c-32.388 26.212-70.578 46.952-113.504 61.646-45.804 15.678-94.718 23.628-145.384 23.628zM480 896v0c265.096 0 480-173.914 480-388.448s-214.904-388.448-480-388.448c-25.458 0-50.446 1.62-74.834 4.71-103.106-102.694-222.172-121.108-341.166-123.814v25.134c64.252 31.354 116 88.466 116 153.734 0 9.106-0.712 18.048-2.030 26.794-108.558 71.214-177.97 179.988-177.97 301.89 0 214.534 214.904 388.448 480 388.448zM996 25.314c0-55.942 36.314-104.898 92-131.772v-21.542c-103.126 2.318-197.786 18.102-287.142 106.126-21.14-2.65-42.794-4.040-64.858-4.040-95.47 0-183.408 25.758-253.614 69.040 144.674 0.506 281.26 46.854 384.834 130.672 52.208 42.252 93.394 91.826 122.414 147.348 30.766 58.866 46.366 121.582 46.366 186.406 0 10.448-0.45 20.836-1.258 31.168 72.57-59.934 117.258-141.622 117.258-231.676 0-104.488-60.158-197.722-154.24-258.764-1.142-7.496-1.76-15.16-1.76-22.966z" />
<glyph unicode="&#xe633;" glyph-name="file" d="M800-128h-575.999c-34.025 0-66.651 13.548-90.667 37.652-24.019 24.096-37.45 56.774-37.333 90.796v767.104c-0.035 70.78 57.22 128.235 128 128.448h416c37.305-1.122 72.902-15.903 100.031-41.536l146.432-146.432c25.58-27.165 40.352-62.74 41.536-100.032v-608c0-70.694-57.306-128-128-128v0 0zM224 0h576v512h-128c-70.692 0-128 57.308-128 128v128c-122.816 0-320 0-320-0.384v-767.616zM672 741.5v-101.504h101.568l-101.568 101.504z" />
<glyph unicode="&#xe900;" glyph-name="teams" d="M880 549.248q-23.467 0-43.733 8.747t-35.499 24.021q-15.275 15.232-24.021 35.499-8.747 20.224-8.747 43.733 0 23.040 8.747 43.52t24.021 35.712q15.232 15.275 35.499 24.021 20.224 8.747 43.733 8.747 23.040 0 43.52-8.747t35.712-24.021q15.275-15.232 24.021-35.712t8.747-43.52q0-23.467-8.747-43.733t-24.021-35.499q-15.232-15.275-35.712-24.021t-43.52-8.747zM880 709.248q-20.011 0-34.005-13.995t-13.995-34.005 13.995-34.005 34.005-13.995 34.005 13.995 13.995 34.005-13.995 34.005-34.005 13.995zM1024 469.248v-237.995q0-33.024-12.501-62.293-12.501-29.227-34.261-50.944-21.76-21.76-50.987-34.261-29.269-12.501-62.251-12.501-18.987 0-38.741 4.48-19.755 4.523-36.267 14.037-12.501-40.533-36.48-73.771-24.021-33.28-56.277-57.003-32.256-23.765-71.253-36.736-38.997-13.013-80.981-13.013-48.981 0-92.245 16.981-43.264 17.024-77.013 47.019-33.707 29.995-55.979 70.997t-28.757 89.003h-247.467q-17.536 0-30.037 12.501t-12.501 29.995v427.008q0 17.493 12.501 29.995t29.995 12.501h366.507q-14.507 30.507-14.507 64 0 31.019 11.733 58.24 11.776 27.264 32 47.531 20.267 20.224 47.531 32 27.221 11.733 58.24 11.733t58.24-11.733q27.264-11.776 47.531-32 20.224-20.267 32-47.531 11.733-27.221 11.733-58.24t-11.733-58.24q-11.776-27.264-32-47.488-20.267-20.267-47.531-32-27.221-11.776-58.24-11.776-8.021 0-16 1.024-8.021 0.981-16 2.475v-45.995h464q20.011 0 34.005-13.995t13.995-34.005zM544 794.752q-17.493 0-33.28-6.741-15.701-6.741-27.221-18.517-11.52-11.733-18.261-27.264-6.741-15.488-6.741-32.981t6.741-33.28q6.784-15.701 18.261-27.221 11.52-11.52 27.264-18.261t33.237-6.741 32.981 6.741q15.531 6.784 27.307 18.261 11.691 11.52 18.475 27.264 6.741 15.744 6.741 33.237t-6.741 32.981q-6.784 15.531-18.517 27.307-11.733 11.733-27.264 18.475-15.488 6.741-32.981 6.741zM295.979 477.269h96v79.957h-271.915v-80h96v-256h80zM736 165.248v288h-224v-277.504q0-17.493-12.501-29.995t-29.995-12.501h-114.987q6.485-34.517 23.723-64 17.28-29.483 42.027-50.773 24.747-21.205 56.235-33.237 31.488-11.989 67.499-11.989 39.509 0 74.496 15.019 34.987 14.976 61.269 41.216 26.24 26.283 41.216 61.013 15.019 34.773 15.019 74.752zM960 231.253v221.995h-160v-292.48q13.013-13.013 29.483-19.285 16.512-6.229 34.517-6.229 20.011 0 37.504 7.509 17.493 7.467 30.507 20.48 12.971 13.013 20.48 30.507t7.509 37.504z" />
<glyph unicode="&#xe901;" glyph-name="map-marker-alt" horiz-adv-x="768" d="M344.536-107.34c-290.596 421.278-344.536 464.514-344.536 619.34 0 212.078 171.922 384 384 384s384-171.922 384-384c0-154.826-53.94-198.062-344.536-619.34-19.070-27.548-59.86-27.546-78.928 0zM384 352c88.366 0 160 71.634 160 160s-71.634 160-160 160-160-71.634-160-160 71.634-160 160-160z" />
<glyph unicode="&#xe902;" glyph-name="FB_logo_black-solid-1" d="M512.208-119.747c-16.126 0-31.849 4.031-45.556 12.094l-364.447 206.816c-28.22 16.126-45.959 45.959-45.959 78.211v413.631c0 32.252 17.335 62.085 45.959 78.211l364.447 206.816c13.707 7.66 29.43 11.691 45.556 11.691s31.849-4.031 45.556-12.094l364.447-206.816c28.22-16.126 45.556-45.959 45.556-78.211v-413.631c0-32.252-17.335-62.085-45.959-78.211l-364.044-206.816c-13.707-7.66-29.43-11.691-45.556-11.691zM512.208 840.959c-7.66 0-15.32-2.016-22.173-5.644l-364.044-207.219c-13.707-7.66-21.77-21.77-21.77-37.090v-413.631c0-15.32 8.466-29.43 21.77-37.090l364.447-206.816c12.901-7.257 31.043-7.257 44.346 0l364.447 206.816c13.707 7.66 21.77 21.77 21.77 37.090v413.631c0 15.32-8.466 29.43-21.77 37.090l-364.447 206.816c-7.257 4.031-14.917 6.047-22.576 6.047zM442.060 42.722c-8.869 0-17.335 2.419-24.995 7.257l-252.372 156.825c-14.11 8.869-22.576 24.592-22.576 41.524s8.466 32.655 22.576 41.524l41.121 26.205-41.121 26.205c-14.11 8.869-22.576 24.592-22.576 41.524s8.466 32.655 22.576 41.524l41.121 26.205-41.121 26.205c-14.11 8.869-22.576 24.592-22.576 41.524s8.466 32.655 22.576 41.524l252.775 157.228c7.66 4.838 16.126 7.257 24.995 7.257 26.205 0 47.572-21.77 47.572-48.781v-74.986c0-16.932-8.466-32.655-22.576-41.524l-175.37-108.447 63.294-40.315 131.83 83.452c14.917 9.676 35.074 9.676 50.394 0l131.83-83.452 63.294 40.315-174.967 108.044c-14.11 8.869-22.576 24.995-22.576 41.524v74.986c0 13.304 5.241 25.802 14.513 35.074 8.869 8.869 20.964 13.707 33.461 13.707 8.869 0 17.335-2.419 24.995-7.257l252.372-156.825c14.11-8.869 22.576-24.592 22.576-41.524s-8.466-32.655-22.576-41.524l-41.121-26.205 41.121-26.205c14.11-8.869 22.576-24.592 22.576-41.524s-8.466-32.655-22.576-41.524l-41.121-26.205 41.121-26.205c14.11-8.869 22.576-24.592 22.576-41.524s-8.466-32.655-22.576-41.524l-252.775-157.228c-7.66-4.838-16.126-7.257-24.995-7.257-26.205 0-47.572 21.77-47.572 48.781v74.986c0 16.932 8.466 32.655 22.576 41.524l174.967 108.447-63.294 40.315-131.83-83.452c-14.917-9.676-35.074-9.676-50.394 0l-131.83 83.452-63.294-40.315 174.967-108.044c14.11-8.869 22.576-24.995 22.576-41.524v-74.986c0.403-27.011-20.964-48.781-47.572-48.781zM248.951 289.047l-60.069-37.896c-0.806-0.403-1.209-1.209-1.209-2.419s0.403-2.016 1.209-2.419l252.372-156.825c0.403-0.403 0.806-0.403 0.806-0.403s2.016 0.403 2.016 2.419v74.986c0 1.209-0.403 2.016-1.209 2.419l-193.915 120.139zM775.465 289.047l-194.318-120.139c-0.403-0.403-0.806-1.209-0.806-2.419v-74.986c0-2.419 2.016-2.419 2.016-2.419s0.403 0 0.806 0.403l252.775 157.228c0.403 0.403 0.806 1.209 0.806 2.419s-0.403 2.016-1.209 2.419l-60.069 37.493zM398.52 383.787l112.882-71.761c0.403 0 1.209 0 1.613 0l112.882 71.761-112.882 71.761c-0.403 0-1.209 0-1.613 0l-112.882-71.761zM712.17 383.787l63.698-40.315 59.666 37.896c0.806 0.403 1.209 1.209 1.209 2.419s-0.403 2.016-1.209 2.419l-59.666 37.896-63.698-40.315zM248.951 424.505l-59.666-37.896c-0.806-0.403-1.209-1.209-1.209-2.419s0.403-2.016 1.209-2.419l59.666-37.896 63.698 40.315-63.698 40.315zM442.060 678.893c0 0-0.403 0-0.806-0.403l-252.775-157.228c-0.403-0.403-0.806-1.209-0.806-2.419s0.403-2.016 1.209-2.419l60.069-37.896 194.318 120.139c0.403 0.403 0.806 1.209 0.806 2.419v75.389c0 2.419-2.016 2.419-2.016 2.419zM582.356 678.893c-0.403 0-0.806 0-1.209-0.403s-0.806-1.613-0.806-2.016v-74.986c0-1.209 0.403-2.016 1.209-2.419l193.915-120.139 60.069 37.896c0.806 0.403 1.209 1.209 1.209 2.419s-0.403 2.016-1.209 2.419l-252.372 156.825c-0.806 0.403-0.806 0.403-0.806 0.403z" />
<glyph unicode="&#xe903;" glyph-name="discord" d="M862.805 896c59.989 0 108.373-48.512 111.232-105.6v-918.4l-114.219 96.981-62.72 57.088-68.437 59.648 28.587-94.080h-598.955c-59.819 0-108.373 45.44-108.373 105.643v692.907c0 57.088 48.64 105.685 108.587 105.685l704.299 0.128zM601.771 653.525h-1.28l-8.619-8.533c88.448-25.6 131.243-65.579 131.243-65.579-57.003 28.501-108.373 42.752-159.744 48.512-37.12 5.76-74.24 2.731-105.6 0h-8.533c-20.053 0-62.72-8.533-119.893-31.36-19.925-8.661-31.36-14.336-31.36-14.336s42.752 42.752 136.96 65.579l-5.76 5.76s-71.339 2.731-148.352-54.187c0 0-77.013-134.144-77.013-299.52 0 0 42.667-74.24 159.701-77.056 0 0 17.067 22.741 34.347 42.752-65.707 19.968-91.307 59.904-91.307 59.904s5.717-2.816 14.293-8.533h2.56c1.28 0 1.877-0.64 2.56-1.28v-0.256c0.683-0.683 1.28-1.28 2.56-1.28 14.080-5.803 28.16-11.52 39.68-17.067 19.883-8.619 45.44-17.195 76.8-22.869 39.68-5.76 85.163-8.533 136.96 0 25.6 5.76 51.2 11.392 76.8 22.827 16.64 8.533 37.12 17.067 59.605 31.445 0 0-25.6-39.936-94.080-59.904 14.080-19.883 33.92-42.667 33.92-42.667 117.077 2.56 162.56 76.8 165.12 73.643 0 165.12-77.44 299.52-77.44 299.52-69.76 51.797-135.040 53.76-146.56 53.76l2.389 0.853zM608.939 465.237c29.995 0 54.187-25.6 54.187-56.96 0-31.573-24.32-57.173-54.187-57.173s-54.187 25.6-54.187 56.917c0.085 31.573 24.448 57.088 54.187 57.088zM415.104 465.237c29.867 0 54.016-25.6 54.016-56.96 0-31.573-24.32-57.173-54.187-57.173s-54.187 25.6-54.187 56.917c0 31.573 24.32 57.088 54.187 57.088z" />
<glyph unicode="&#xe904;" glyph-name="close" d="M877.716 676.081l-292.081-292.081 292.081-292.081-73.635-73.635-292.081 292.081-292.081-292.081-73.635 73.635 292.081 292.081-292.081 292.081 73.635 73.635 292.081-292.081 292.081 292.081z" />
<glyph unicode="&#xe905;" glyph-name="wechat, weixin" horiz-adv-x="1170" d="M331.429 632.571c0 31.429-20.571 52-52 52-30.857 0-62.286-20.571-62.286-52 0-30.857 31.429-51.429 62.286-51.429 31.429 0 52 20.571 52 51.429zM756 342.857c0 20.571-20.571 41.143-52 41.143-20.571 0-41.143-20.571-41.143-41.143 0-21.143 20.571-41.714 41.143-41.714 31.429 0 52 20.571 52 41.714zM621.143 632.571c0 31.429-20.571 52-51.429 52-31.429 0-62.286-20.571-62.286-52 0-30.857 30.857-51.429 62.286-51.429 30.857 0 51.429 20.571 51.429 51.429zM984 342.857c0 20.571-21.143 41.143-52 41.143-20.571 0-41.143-20.571-41.143-41.143 0-21.143 20.571-41.714 41.143-41.714 30.857 0 52 20.571 52 41.714zM832 569.714c-13.143 1.714-26.286 2.286-40 2.286-196.571 0-352-146.857-352-327.429 0-30.286 4.571-59.429 13.143-86.857-13.143-1.143-25.714-1.714-38.857-1.714-52 0-93.143 10.286-145.143 20.571l-144.571-72.571 41.143 124.571c-103.429 72.571-165.714 166.286-165.714 280 0 197.143 186.286 352 414.286 352 203.429 0 382.286-124 417.714-290.857zM1170.286 249.143c0-93.143-61.714-176-145.143-238.286l31.429-103.429-113.714 62.286c-41.714-10.286-83.429-21.143-124.571-21.143-197.143 0-352 134.857-352 300.571s154.857 300.571 352 300.571c186.286 0 352-134.857 352-300.571z" />
<glyph unicode="&#xe906;" glyph-name="tiktok" d="M534.613 895.147c55.893 0.853 111.36 0.427 166.827 0.853 3.413-65.28 26.88-131.84 74.667-177.92 47.787-47.36 115.2-69.12 180.907-76.373v-171.947c-61.44 2.133-123.307 14.933-179.2 41.387-24.32 11.093-46.933 25.173-69.12 39.68-0.427-124.587 0.427-249.173-0.853-373.333-3.413-59.733-23.040-119.040-57.6-168.107-55.893-81.92-152.747-135.253-252.16-136.96-61.013-3.413-122.027 13.227-174.080 43.947-86.187 50.773-146.773 143.787-155.733 243.627-0.853 21.333-1.28 42.667-0.427 63.573 7.68 81.067 47.787 158.72 110.080 211.627 70.827 61.44 169.813 90.88 262.4 73.387 0.853-63.147-1.707-126.293-1.707-189.44-42.24 13.653-91.733 9.813-128.853-15.787-26.88-17.493-47.36-44.373-58.027-74.667-8.96-21.76-6.4-45.653-5.973-68.693 10.24-69.973 77.653-128.853 149.333-122.453 47.787 0.427 93.44 28.16 118.187 68.693 8.107 14.080 17.067 28.587 17.493 45.227 4.267 76.373 2.56 152.32 2.987 228.693 0.427 171.947-0.427 343.467 0.853 514.987z" />
<glyph unicode="&#xe907;" glyph-name="buy-now-cart" d="M981.315 851.191c23.564 0 42.666-19.102 42.666-42.666s-19.102-42.666-42.666-42.666h-79.873c-10.857 0-16.646-0.028-20.818-0.343l-0.423-0.033-0.105-0.411c-1.020-4.059-2.032-9.758-3.88-20.457l-60.488-350.375c-3.573-20.701-6.669-38.634-10.406-53.282-3.96-15.513-9.402-30.663-19.378-44.632-14.958-20.953-35.885-36.906-60.048-45.776-16.113-5.917-32.167-7.151-48.176-6.861-15.112 0.273-33.223 2.040-54.13 4.079l-463.316 45.17c-20.458 1.992-38.203 3.72-52.803 6.307-15.488 2.744-30.723 6.951-45.196 15.612-21.738 13.009-39.129 32.174-49.966 55.074-7.215 15.245-9.924 30.818-11.149 46.492-1.156 14.784-1.156 32.614-1.156 53.166v23.534c0 21.88 0 40.785 1.259 56.391 1.331 16.498 4.271 32.899 12.177 48.771 11.822 23.726 30.723 43.198 54.087 55.723 15.624 8.379 31.931 11.804 48.383 13.626 15.565 1.724 34.466 2.287 56.336 2.939l607.724 18.122 12.366 71.633c1.559 9.034 3.101 17.978 5.003 25.542 2.116 8.419 5.337 18.069 11.684 27.529 8.932 13.313 21.433 23.841 36.071 30.378 10.402 4.645 20.46 6.179 29.115 6.831l107.107 0.584zM637.911 101.314c29.106 0 53.179-23.846 53.179-53.852s-24.072-53.852-53.179-53.852c-29.102 0-53.175 23.846-53.175 53.852s24.072 53.852 53.175 53.852zM767.887 47.46c0 71.888-57.927 130.651-129.976 130.651-72.045 0-129.973-58.764-129.973-130.651 0-71.892 57.927-130.651 129.973-130.651 72.049 0 129.976 58.759 129.976 130.651zM202.919 101.314c29.102 0 53.179-23.846 53.179-53.852s-24.077-53.852-53.179-53.852c-29.102 0-53.175 23.846-53.175 53.852s24.072 53.852 53.175 53.852zM332.896 47.46c0 71.888-57.927 130.651-129.977 130.651-72.045 0-129.973-58.764-129.973-130.651 0-71.892 57.927-130.651 129.973-130.651 72.049 0 129.977 58.759 129.977 130.651z" />
<glyph unicode="&#xe908;" glyph-name="question-circle" horiz-adv-x="878" d="M512.167 109.623v109.75c0 10.289-8.003 18.292-18.292 18.292h-109.75c-10.289 0-18.292-8.003-18.292-18.292v-109.75c0-10.289 8.003-18.292 18.292-18.292h109.75c10.289 0 18.292 8.003 18.292 18.292zM658.502 493.75c0 104.606-109.75 182.918-208.069 182.918-93.174 0-162.911-40.013-212.070-121.754-5.145-8.003-2.858-18.292 4.573-24.008l75.454-57.162c2.858-2.287 6.859-3.43 10.861-3.43 5.145 0 10.861 2.287 14.291 6.859 26.866 34.297 38.299 44.586 49.159 52.588 9.717 6.859 28.58 13.719 49.159 13.719 36.583 0 70.309-23.437 70.309-48.587 0-29.724-15.434-44.586-50.303-60.591-40.584-18.292-96.032-65.736-96.032-121.183v-20.578c0-10.289 8.003-18.292 18.292-18.292h109.75c10.289 0 18.292 8.003 18.292 18.292v0c0 13.147 16.576 41.157 43.443 56.59 43.443 24.579 102.891 57.733 102.891 144.619zM878.003 384c0-242.366-196.636-439.003-439.003-439.003s-439.003 196.636-439.003 439.003 196.636 439.003 439.003 439.003 439.003-196.636 439.003-439.003z" />
<glyph unicode="&#xe909;" glyph-name="carousel" d="M815.823 223.651v526.062c0 81.584-64.704 146.287-146.287 146.287h-523.246c-81.584 0-146.287-64.704-146.287-146.287v-526.062c0-81.584 64.704-146.287 146.287-146.287h526.062c78.768 2.812 143.471 67.516 143.471 146.287zM939.599 637.187v-452.92c0-126.592-104.086-230.678-230.678-230.678h-452.92c-16.88 0-25.32-19.695-14.064-30.946 28.132-30.946 67.516-50.64 115.343-50.64h376.968c160.351 0 289.756 129.405 289.756 289.756v376.968c0 45.008-19.695 87.209-50.64 115.343-14.064 11.249-33.757 0-33.757-16.88z" />
<glyph unicode="&#xe90a;" glyph-name="video" d="M214.009-127.927c-30.886 0.026-59.824 8.349-84.709 22.86l0.802-0.432-0.146 0.097c-50.449 29.64-83.795 83.612-83.859 145.378v688.089c0 0.014 0 0.030 0 0.046 0 92.762 75.198 167.961 167.961 167.961 30.832 0 59.723-8.307 84.558-22.806l-0.796 0.43 596.079-344.162c50.573-29.566 84.009-83.602 84.009-145.447 0-61.864-33.456-115.915-83.262-145.046l-0.794-0.43-595.786-344.015c-24.119-14.131-53.107-22.489-84.043-22.525h-0.010z" />
<glyph unicode="&#xe90b;" glyph-name="twitter" d="M806.38 846.809h157.088l-343.102-392.053 403.623-533.566h-315.956l-247.647 323.521-283.026-323.521h-157.311l366.91 419.421-386.935 506.198h323.966l223.617-295.708 258.773 295.708zM751.199 15.088h86.999l-561.601 742.72h-93.452l568.054-742.72z" />
<glyph unicode="&#xe90c;" glyph-name="mastodon" d="M989.563 559.791c0 222.126-145.57 287.256-145.57 287.256-142.828 65.586-522.408 64.901-663.865 0 0 0-145.57-65.13-145.57-287.256 0-264.403-15.083-592.794 241.322-660.666 92.553-24.452 172.079-29.708 236.067-26.052 116.090 6.399 181.22 41.363 181.22 41.363l-3.885 84.326s-82.955-26.052-176.192-23.081c-92.324 3.199-189.675 10.055-204.758 123.404-1.31 9.307-2.058 20.056-2.058 30.982 0 0.275 0 0.55 0.001 0.825v-0.043c195.618-47.762 362.67-20.795 408.602-15.311 128.202 15.311 239.951 94.38 254.12 166.594 22.395 113.806 20.567 277.658 20.567 277.658zM817.941 273.677h-106.492v260.976c0 113.576-146.257 117.919-146.257-15.769v-142.828h-105.807v142.828c0 133.687-146.257 129.345-146.257 15.769v-260.976h-106.95c0 279.029-11.884 337.988 42.049 399.919 59.187 66.044 182.363 70.386 237.209-13.94l26.508-44.563 26.508 44.563c55.074 84.782 178.478 79.526 237.209 13.94 54.161-62.387 42.049-121.118 42.049-399.919z" />
<glyph unicode="&#xe90d;" glyph-name="threads" d="M743.313 427.404c4.692-1.92 8.958-4.052 13.437-5.972 62.279-30.073 107.922-75.076 131.81-130.956 33.486-77.849 36.685-204.326-64.625-305.423-77.209-77.209-171.267-111.974-304.143-113.041h-0.64c-149.725 1.066-264.685 51.401-342.108 149.725-68.891 87.446-104.296 209.232-105.576 361.73v1.066c1.066 152.498 36.472 274.283 105.362 361.73 77.422 98.324 192.595 148.659 342.321 149.725h0.64c149.939-1.066 266.392-51.188 346.16-149.086 39.244-48.415 68.251-106.642 86.593-174.253l-86.167-23.035c-15.143 55.027-37.965 101.95-68.677 139.488-62.279 76.356-155.697 115.6-278.336 116.453-121.572-1.066-213.497-40.097-273.43-116.027-55.88-71.024-84.887-173.826-85.953-305.423 1.066-131.596 30.073-234.399 85.953-305.636 59.72-75.929 151.858-114.96 273.43-116.027 109.628 0.853 182.145 26.874 242.504 87.233 68.891 68.677 67.611 153.138 45.643 204.539-13.010 30.286-36.472 55.454-68.038 74.436-7.892-57.373-25.168-103.016-52.681-138.208-36.472-46.496-88.3-71.663-155.057-75.289-50.335-2.773-98.751 9.384-136.288 34.125-44.363 29.433-70.384 74.223-73.156 126.477-5.332 103.016 76.142 177.026 203.046 184.277 45.003 2.559 87.233 0.64 126.264-5.972-5.119 31.566-15.57 56.734-31.139 75.076-21.328 24.954-54.601 37.751-98.537 37.965h-1.493c-35.405 0-83.181-9.811-113.68-56.094l-73.37 50.335c40.951 62.066 107.282 96.191 187.263 96.191h1.706c133.516-0.853 213.071-84.247 221.176-229.707l-0.427-0.427zM410.59 280.664c2.773-53.534 60.573-78.489 116.453-75.289 54.601 2.986 116.453 24.314 126.904 156.124-28.153 6.185-59.293 9.384-92.565 9.384-10.238 0-20.475-0.213-30.713-0.853-91.499-5.119-121.998-49.482-119.866-89.153l-0.213-0.213z" />
<glyph unicode="&#xe90e;" glyph-name="bluesky" d="M221.91 773.783c117.484-87.912 243.82-266.553 290.090-362.512 46.27 95.758 172.605 274.398 290.090 362.512 84.693 63.57 221.893 112.656 221.893-43.855 0-31.182-17.904-262.529-28.365-300.148-36.613-130.359-169.789-163.754-288.279-143.436 207.006-35.205 259.713-151.885 145.85-268.564-216.059-221.691-310.408 55.523-334.549 126.537v0c-3.42 9.857-5.23 15.691-6.639 15.691s-3.219-6.035-6.639-15.691v0c-24.141-71.014-118.691-348.228-334.549-126.537-113.662 116.68-61.156 233.359 145.85 268.564-118.49-20.318-251.666 13.076-288.078 143.637-10.662 37.619-28.566 268.967-28.566 300.148 0 156.512 137.199 107.426 221.893 43.855z" />
<glyph unicode="&#xe90f;" glyph-name="share" d="M491.541 891.312c-7.704-3.706-31.207-26.233-112.44-107.759-56.464-56.707-104.151-106.053-105.956-109.661-11.166-22.185-2.194-51.003 19.845-63.973 8.045-4.73 11.41-5.509 23.99-5.462 10.386 0 16.627 1.073 21.454 3.608 3.754 1.999 33.352 30.037 65.777 62.315l59 58.707 0.488-265.352 0.536-265.303 5.9-9.605c3.315-5.363 9.996-12.337 15.164-15.847 22.966-15.409 53.734-8.338 68.605 15.847l5.9 9.605 0.536 265.303 0.488 265.352 59-58.707c32.425-32.279 62.023-60.316 65.777-62.315 4.827-2.536 11.068-3.608 21.454-3.608 12.58-0.049 15.945 0.731 23.99 5.462 10.825 6.339 19.943 17.992 23.063 29.402 0.823 3.657 1.294 7.858 1.294 12.168 0 8.088-1.659 15.789-4.656 22.78l0.144-0.377c-1.805 3.608-49.492 52.953-105.956 109.661-81.235 81.527-104.736 104.054-112.44 107.759-5.986 2.953-13.030 4.68-20.479 4.68s-14.493-1.727-20.757-4.803l0.278 0.123zM193.959 502.353c-32.718-8.581-60.414-36.57-69.093-69.971-2.536-9.605-2.926-43.835-2.926-243.41 0-252.869-0.439-242.24 10.971-264.767 6.632-13.116 28.086-34.571 41.202-41.202 22.82-11.556 4.974-10.971 337.907-10.971s315.087-0.585 337.907 10.971c12.97 6.583 34.522 28.037 41.008 40.861 11.605 22.869 11.166 12.385 11.117 264.425 0 250.236 0.243 243.361-10.629 264.816-11.214 22.185-37.009 42.909-61.34 49.247-17.164 4.486-122.924 5.169-137.161 0.878-12.156-3.804-22.063-11.795-28.251-22.248l-0.127-0.231c-4.438-7.607-5.266-11.214-5.266-23.6 0-12.483 0.781-15.994 5.412-23.844 2.975-5.023 8.435-11.507 12.19-14.335 12.775-9.752 17.407-10.386 74.554-10.483l53.149-0.097v-438.84h-585.12v438.84l53.149 0.097c57.146 0.097 61.779 0.731 74.554 10.483 3.754 2.828 9.216 9.313 12.19 14.335 4.632 7.85 5.412 11.361 5.412 23.844 0 12.385-0.829 15.994-5.266 23.6-6.315 10.683-16.222 18.674-28.026 22.383l-0.352 0.096c-14.238 4.291-119.999 3.608-137.161-0.878z" />
<glyph unicode="&#xe942;" glyph-name="phone" d="M704 256c-64-64-64-128-128-128s-128 64-192 128-128 128-128 192 64 64 128 128-128 256-192 256-192-192-192-192c0-128 131.5-387.5 256-512s384-256 512-256c0 0 192 128 192 192s-192 256-256 192z" />
<glyph unicode="&#xe971;" glyph-name="avada-logo" d="M2.243-97.539c-7.109-14.219 3.656-30.062 19.704-30.062 453.799-0.813 792.421 437.954 543.787 937.864l-36.971 74.144c-7.72 15.438-29.454 15.438-37.175 0l-489.346-981.943zM792.851 354.234c-7.718 15.439-29.658 15.439-37.174 0l-112.535-219.789c-60.534-121.066 15.642-262.447 161.49-262.447h198.462c15.437 0 25.594 16.25 18.687 30.062l-228.931 452.173z" />
<glyph unicode="&#xea92;" glyph-name="instagram" d="M512 803.8c136.8 0 153-0.6 206.8-3 50-2.2 77-10.6 95-17.6 23.8-9.2 41-20.4 58.8-38.2 18-18 29-35 38.4-58.8 7-18 15.4-45.2 17.6-95 2.4-54 3-70.2 3-206.8s-0.6-153-3-206.8c-2.2-50-10.6-77-17.6-95-9.2-23.8-20.4-41-38.2-58.8-18-18-35-29-58.8-38.4-18-7-45.2-15.4-95-17.6-54-2.4-70.2-3-206.8-3s-153 0.6-206.8 3c-50 2.2-77 10.6-95 17.6-23.8 9.2-41 20.4-58.8 38.2-18 18-29 35-38.4 58.8-7 18-15.4 45.2-17.6 95-2.4 54-3 70.2-3 206.8s0.6 153 3 206.8c2.2 50 10.6 77 17.6 95 9.2 23.8 20.4 41 38.2 58.8 18 18 35 29 58.8 38.4 18 7 45.2 15.4 95 17.6 53.8 2.4 70 3 206.8 3zM512 896c-139 0-156.4-0.6-211-3-54.4-2.4-91.8-11.2-124.2-23.8-33.8-13.2-62.4-30.6-90.8-59.2-28.6-28.4-46-57-59.2-90.6-12.6-32.6-21.4-69.8-23.8-124.2-2.4-54.8-3-72.2-3-211.2s0.6-156.4 3-211c2.4-54.4 11.2-91.8 23.8-124.2 13.2-33.8 30.6-62.4 59.2-90.8 28.4-28.4 57-46 90.6-59 32.6-12.6 69.8-21.4 124.2-23.8 54.6-2.4 72-3 211-3s156.4 0.6 211 3c54.4 2.4 91.8 11.2 124.2 23.8 33.6 13 62.2 30.6 90.6 59s46 57 59 90.6c12.6 32.6 21.4 69.8 23.8 124.2 2.4 54.6 3 72 3 211s-0.6 156.4-3 211c-2.4 54.4-11.2 91.8-23.8 124.2-12.6 34-30 62.6-58.6 91-28.4 28.4-57 46-90.6 59-32.6 12.6-69.8 21.4-124.2 23.8-54.8 2.6-72.2 3.2-211.2 3.2v0zM512 647c-145.2 0-263-117.8-263-263s117.8-263 263-263 263 117.8 263 263c0 145.2-117.8 263-263 263zM512 213.4c-94.2 0-170.6 76.4-170.6 170.6s76.4 170.6 170.6 170.6c94.2 0 170.6-76.4 170.6-170.6s-76.4-170.6-170.6-170.6zM846.8 657.4c0-33.91-27.49-61.4-61.4-61.4s-61.4 27.49-61.4 61.4c0 33.91 27.49 61.4 61.4 61.4s61.4-27.49 61.4-61.4z" />
<glyph unicode="&#xea94;" glyph-name="spotify" d="M512 896c-281.6 0-512-230.4-512-512s230.4-512 512-512 512 230.4 512 512-227.8 512-512 512zM747.6 156.2c-10.2-15.4-28.2-20.4-43.6-10.2-120.4 74.2-271.4 89.6-450.6 48.6-18-5.2-33.2 7.6-38.4 23-5.2 18 7.6 33.2 23 38.4 194.6 43.6 363.6 25.6 496.6-56.4 18-7.6 20.6-28 13-43.4zM809 297c-12.8-18-35.8-25.6-53.8-12.8-138.2 84.4-348.2 110-509.4 58.8-20.4-5.2-43.6 5.2-48.6 25.6-5.2 20.4 5.2 43.6 25.6 48.6 186.8 56.4 417.2 28.2 576-69.2 15.2-7.6 23-33.2 10.2-51zM814 440.4c-163.8 97.2-437.8 107.6-594 58.8-25.6-7.6-51.2 7.6-58.8 30.8-7.6 25.6 7.6 51.2 30.8 58.8 181.8 53.8 481.2 43.6 670.8-69.2 23-12.8 30.8-43.6 18-66.6-13-17.8-43.6-25.4-66.8-12.6z" />
<glyph unicode="&#xea9f;" glyph-name="twitch" d="M96 896l-96-160v-736h256v-128h128l128 128h160l288 288v608h-864zM832 352l-160-160h-160l-128-128v128h-192v576h640v-416zM608 640h96v-256h-96v256zM416 640h96v-256h-96v256z" />
<glyph unicode="&#xeaaa;" glyph-name="deviantart" d="M829 709.8v186.2h-186.2l-18.6-18.8-88-167.4-27.6-18.6h-313.6v-255.6h172.4l15.4-18.6-187.8-358.8v-186.2h186.2l18.6 18.8 88 167.4 27.6 18.6h313.6v255.6h-172.4l-15.4 18.8z" />
<glyph unicode="&#xeab0;" glyph-name="github" d="M512.014 883.343c-282.729 0-511.992-229.211-511.992-511.982 0-226.207 146.699-418.119 350.126-485.821 25.585-4.738 34.991 11.11 34.991 24.631 0 12.204-0.48 52.54-0.696 95.321-142.443-30.975-172.499 60.409-172.499 60.409-23.281 59.174-56.846 74.913-56.846 74.913-46.45 31.777 3.509 31.123 3.509 31.123 51.399-3.61 78.473-52.765 78.473-52.765 45.67-78.268 119.773-55.639 148.999-42.557 4.588 33.085 17.851 55.678 32.505 68.462-113.727 12.942-233.269 56.849-233.269 253.024 0 55.896 20.003 101.57 52.758 137.423-5.316 12.899-22.853 64.97 4.952 135.495 0 0 43.005 13.752 140.836-52.489 40.834 11.348 84.634 17.036 128.15 17.233 43.501-0.198 87.333-5.886 128.252-17.233 97.731 66.241 140.652 52.489 140.652 52.489 27.871-70.526 10.35-122.596 5.035-135.495 32.819-35.855 52.692-81.529 52.692-137.423 0-196.648-119.775-239.942-233.783-252.616 18.363-15.889 34.723-47.044 34.723-94.809 0-68.506-0.596-123.641-0.596-140.504 0-13.628 9.221-29.593 35.171-24.565 203.316 67.774 349.831 259.618 349.831 485.753 0 282.771-229.227 511.982-511.976 511.982z" />
<glyph unicode="&#xead7;" glyph-name="yelp" d="M608.876 242.532c-17.282-17.426-2.668-49.128-2.668-49.128l130.090-217.218c0 0 21.36-28.64 39.864-28.64 18.59 0 36.954 15.27 36.954 15.27l102.844 147.008c0 0 10.36 18.546 10.598 34.792 0.372 23.106-34.454 29.434-34.454 29.434l-243.488 78.192c-0.002-0.004-23.858 6.328-39.74-9.71zM596.532 352.016c12.46-21.128 46.828-14.972 46.828-14.972l242.938 71.006c0 0 33.106 13.466 37.832 31.418 4.64 17.954-5.46 39.622-5.46 39.622l-116.098 136.752c0 0-10.062 17.292-30.938 19.032-23.016 1.958-37.18-25.898-37.18-25.898l-137.27-216.010c0-0.004-12.134-21.516-0.652-40.95zM481.754 436.232c28.608 7.044 33.148 48.604 33.148 48.604l-1.944 345.87c0 0-4.314 42.666-23.486 54.232-30.070 18.242-38.982 8.718-47.596 7.444l-201.696-74.944c0 0-19.754-6.536-30.042-23.018-14.69-23.352 14.928-57.544 14.928-57.544l209.644-285.756c0 0 20.69-21.396 47.044-14.888zM431.944 296.262c0.722 26.676-32.030 42.7-32.030 42.7l-216.796 109.524c0 0-32.126 13.246-47.722 4.016-11.95-7.060-22.536-19.84-23.572-31.134l-14.12-173.812c0 0-2.116-30.114 5.69-43.82 11.054-19.442 47.428-5.902 47.428-5.902l253.096 55.942c9.832 6.61 27.074 7.204 28.026 42.486zM494.88 202.458c-21.726 11.156-47.724-11.95-47.724-11.95l-169.468-186.566c0 0-21.144-28.528-15.768-46.050 5.066-16.418 13.454-24.578 25.318-30.328l170.192-53.726c0 0 20.634-4.286 36.258 0.242 22.18 6.43 18.094 41.152 18.094 41.152l3.848 252.602c-0.002-0.002-0.868 24.334-20.75 34.624z" />
<glyph unicode="&#xf002;" glyph-name="search" horiz-adv-x="951" d="M658.286 411.428q0 105.714-75.143 180.857t-180.857 75.143-180.857-75.143-75.143-180.857 75.143-180.857 180.857-75.143 180.857 75.143 75.143 180.857zM950.857-64q0-29.714-21.714-51.429t-51.429-21.714q-30.857 0-51.429 21.714l-196 195.429q-102.286-70.857-228-70.857-81.714 0-156.286 31.714t-128.571 85.714-85.714 128.571-31.714 156.286 31.714 156.286 85.714 128.571 128.571 85.714 156.286 31.714 156.286-31.714 128.571-85.714 85.714-128.571 31.714-156.286q0-125.714-70.857-228l196-196q21.143-21.143 21.143-51.429z" />
<glyph unicode="&#xf005;" glyph-name="star" horiz-adv-x="951" d="M950.857 517.143q0-12.571-14.857-27.429l-207.429-202.286 49.143-285.714q0.571-4 0.571-11.429 0-12-6-20.286t-17.429-8.286q-10.857 0-22.857 6.857l-256.571 134.857-256.571-134.857q-12.571-6.857-22.857-6.857-12 0-18 8.286t-6 20.286q0 3.429 1.143 11.429l49.143 285.714-208 202.286q-14.286 15.429-14.286 27.429 0 21.143 32 26.286l286.857 41.714 128.571 260q10.857 23.429 28 23.429t28-23.429l128.571-260 286.857-41.714q32-5.143 32-26.286z" />
<glyph unicode="&#xf006;" glyph-name="star-o" horiz-adv-x="951" d="M649.714 313.143l174.857 169.714-241.143 35.429-108 218.286-108-218.286-241.143-35.429 174.857-169.714-41.714-240.571 216 113.714 215.429-113.714zM950.857 517.143q0-12.571-14.857-27.429l-207.429-202.286 49.143-285.714q0.571-4 0.571-11.429 0-28.571-23.429-28.571-10.857 0-22.857 6.857l-256.571 134.857-256.571-134.857q-12.571-6.857-22.857-6.857-12 0-18 8.286t-6 20.286q0 3.429 1.143 11.429l49.143 285.714-208 202.286q-14.286 15.429-14.286 27.429 0 21.143 32 26.286l286.857 41.714 128.571 260q10.857 23.429 28 23.429t28-23.429l128.571-260 286.857-41.714q32-5.143 32-26.286z" />
<glyph unicode="&#xf00c;" glyph-name="check" d="M347.796 17.191l-332.8 332.8c-19.994 19.994-19.994 52.412 0 72.408l72.406 72.408c19.994 19.996 52.414 19.996 72.408 0l224.19-224.19 480.19 480.19c19.994 19.994 52.414 19.994 72.408 0l72.406-72.408c19.994-19.994 19.994-52.412 0-72.408l-588.8-588.802c-19.996-19.994-52.414-19.994-72.406 0.002z" />
<glyph unicode="&#xf013;" glyph-name="gear" d="M585.143 374.857q0 60.571-42.857 103.429t-103.429 42.857-103.429-42.857-42.857-103.429 42.857-103.429 103.429-42.857 103.429 42.857 42.857 103.429zM877.714 437.143v-126.857q0-6.857-4.571-13.143t-11.429-7.429l-105.714-16q-10.857-30.857-22.286-52 20-28.571 61.143-78.857 5.714-6.857 5.714-14.286t-5.143-13.143q-15.429-21.143-56.571-61.714t-53.714-40.571q-6.857 0-14.857 5.143l-78.857 61.714q-25.143-13.143-52-21.714-9.143-77.714-16.571-106.286-4-16-20.571-16h-126.857q-8 0-14 4.857t-6.571 12.286l-16 105.143q-28 9.143-51.429 21.143l-80.571-61.143q-5.714-5.143-14.286-5.143-8 0-14.286 6.286-72 65.143-94.286 96-4 5.714-4 13.143 0 6.857 4.571 13.143 8.571 12 29.143 38t30.857 40.286q-15.429 28.571-23.429 56.571l-104.571 15.429q-7.429 1.143-12 7.143t-4.571 13.429v126.857q0 6.857 4.571 13.143t10.857 7.429l106.286 16q8 26.286 22.286 52.571-22.857 32.571-61.143 78.857-5.714 6.857-5.714 13.714 0 5.714 5.143 13.143 14.857 20.571 56.286 61.429t54 40.857q7.429 0 14.857-5.714l78.857-61.143q25.143 13.143 52 21.714 9.143 77.714 16.571 106.286 4 16 20.571 16h126.857q8 0 14-4.857t6.571-12.286l16-105.143q28-9.143 51.429-21.143l81.143 61.143q5.143 5.143 13.714 5.143 7.429 0 14.286-5.714 73.714-68 94.286-97.143 4-4.571 4-12.571 0-6.857-4.571-13.143-8.571-12-29.143-38t-30.857-40.286q14.857-28.571 23.429-56l104.571-16q7.429-1.143 12-7.143t4.571-13.429z" />
<glyph unicode="&#xf014;" glyph-name="cog" d="M974.8 264.6c9.799-5.6 14.199-17.199 11.199-28.199-22.199-71.4-60-135.801-109.4-189.201-7.6-8.398-19.799-10.199-29.6-4.6l-85.199 49.201c-36-30.602-77.201-54.4-121.602-70.201v-98.4c0-11.199-7.799-21-18.799-23.398-69.801-15.602-145-16.4-218.4 0-11 2.398-18.801 12.199-18.801 23.398v98.4c-44.6 15.6-85.799 39.4-121.6 70.201l-85.199-49.201c-9.6-5.6-22-3.6-29.6 4.6-49.4 53.602-87.201 118-109.4 189.201-3.201 10.799 1.199 22.4 11 28l85.199 49.199c-8.6 46.4-8.6 94 0 140.4l-85.199 49.199c-9.801 5.602-14.4 17.201-11 28 22.199 71.4 60 135.801 109.4 189.201 7.6 8.4 19.799 10.199 29.6 4.6l85-49.199c36 30.6 77.199 54.398 121.6 70.199v98.4c0 11.199 7.801 21 18.801 23.4 69.799 15.6 145 16.398 218.398 0 11-2.4 18.801-12.201 18.801-23.4v-98.201c44.6-15.6 85.801-39.398 121.6-70.199l85.201 49.199c9.6 5.602 22 3.602 29.6-4.6 49.4-53.6 87.199-118 109.4-189.199 3.199-10.801-1.201-22.4-11-28l-85.201-49.201c8.6-46.398 8.6-94 0-140.398zM512 224c88.199 0 160 71.801 160 160s-71.801 160-160 160-160-71.801-160-160 71.801-160 160-160z" />
<glyph unicode="&#xf046;" glyph-name="check-square-o" horiz-adv-x="951" d="M804.571 355.428v-181.714q0-68-48.286-116.286t-116.286-48.286h-475.429q-68 0-116.286 48.286t-48.286 116.286v475.429q0 68 48.286 116.286t116.286 48.286h475.429q36 0 66.857-14.286 8.571-4 10.286-13.143 1.714-9.714-5.143-16.571l-28-28q-5.714-5.714-13.143-5.714-1.714 0-5.143 1.143-13.143 3.429-25.714 3.429h-475.429q-37.714 0-64.571-26.857t-26.857-64.571v-475.429q0-37.714 26.857-64.571t64.571-26.857h475.429q37.714 0 64.571 26.857t26.857 64.571v145.143q0 7.429 5.143 12.571l36.571 36.571q5.714 5.714 13.143 5.714 3.429 0 6.857-1.714 11.429-4.571 11.429-16.571zM936.571 634.857l-465.143-465.143q-13.714-13.714-32.571-13.714t-32.571 13.714l-245.714 245.714q-13.714 13.714-13.714 32.571t13.714 32.571l62.857 62.857q13.714 13.714 32.571 13.714t32.571-13.714l150.286-150.286 369.714 369.714q13.714 13.714 32.571 13.714t32.571-13.714l62.857-62.857q13.714-13.714 13.714-32.571t-13.714-32.571z" />
<glyph unicode="&#xf058;" glyph-name="check-circle" d="M1008 384c0-273.934-222.066-496-496-496s-496 222.066-496 496 222.066 496 496 496 496-222.066 496-496zM454.628 121.371l368 368c12.494 12.496 12.494 32.76 0 45.256l-45.256 45.254c-12.494 12.498-32.758 12.498-45.256 0l-300.118-300.118-140.117 140.119c-12.496 12.496-32.76 12.496-45.256 0l-45.256-45.254c-12.494-12.496-12.494-32.76 0-45.256l208-208c12.498-12.496 32.76-12.496 45.258-0.002z" />
<glyph unicode="&#xf05a;" glyph-name="info-circle" d="M512 880c273.914 0 496-222.166 496-496 0-273.994-222.086-496-496-496s-496 222.006-496 496c0 273.834 222.086 496 496 496zM512 660c-46.393 0-84-37.607-84-84s37.607-84 84-84 84 37.607 84 84-37.607 84-84 84zM624 152v48c0 13.254-10.746 24-24 24h-24v200c0 13.254-10.746 24-24 24h-128c-13.254 0-24-10.746-24-24v-48c0-13.254 10.746-24 24-24h24v-128h-24c-13.254 0-24-10.746-24-24v-48c0-13.254 10.746-24 24-24h176c13.254 0 24 10.746 24 24z" />
<glyph unicode="&#xf05d;" glyph-name="check-circle-o" d="M669.143 422.286l-241.143-241.143q-10.857-10.857-25.714-10.857t-25.714 10.857l-168 168q-10.857 10.857-10.857 25.714t10.857 25.714l58.286 58.286q10.857 10.857 25.714 10.857t25.714-10.857l84-84 157.143 157.143q10.857 10.857 25.714 10.857t25.714-10.857l58.286-58.286q10.857-10.857 10.857-25.714t-10.857-25.714zM749.714 374.857q0 84.571-41.714 156t-113.143 113.143-156 41.714-156-41.714-113.143-113.143-41.714-156 41.714-156 113.143-113.143 156-41.714 156 41.714 113.143 113.143 41.714 156zM877.714 374.857q0-119.429-58.857-220.286t-159.714-159.714-220.286-58.857-220.286 58.857-159.714 159.714-58.857 220.286 58.857 220.286 159.714 159.714 220.286 58.857 220.286-58.857 159.714-159.714 58.857-220.286z" />
<glyph unicode="&#xf06e;" glyph-name="eye" d="M950.857 347.429c-54.286 84-128.571 156-217.714 201.714 22.857-38.857 34.857-83.429 34.857-128.571 0-141.143-114.857-256-256-256s-256 114.857-256 256c0 45.143 12 89.714 34.857 128.571-89.143-45.714-163.429-117.714-217.714-201.714 97.714-150.857 255.429-256 438.857-256s341.143 105.143 438.857 256zM539.429 566.857c0 14.857-12.571 27.429-27.429 27.429-95.429 0-173.714-78.286-173.714-173.714 0-14.857 12.571-27.429 27.429-27.429s27.429 12.571 27.429 27.429c0 65.143 53.714 118.857 118.857 118.857 14.857 0 27.429 12.571 27.429 27.429zM1024 347.429c0-14.286-4.571-27.429-11.429-39.429-105.143-173.143-297.714-289.714-500.571-289.714s-395.429 117.143-500.571 289.714c-6.857 12-11.429 25.143-11.429 39.429s4.571 27.429 11.429 39.429c105.143 172.571 297.714 289.714 500.571 289.714s395.429-117.143 500.571-289.714c6.857-12 11.429-25.143 11.429-39.429z" />
<glyph unicode="&#xf070;" glyph-name="eye-slash" d="M317.143 133.143l44.571 80.571c-66.286 48-105.714 125.143-105.714 206.857 0 45.143 12 89.714 34.857 128.571-89.143-45.714-163.429-117.714-217.714-201.714 59.429-92 143.429-169.143 244-214.286zM539.429 566.857c0 14.857-12.571 27.429-27.429 27.429-95.429 0-173.714-78.286-173.714-173.714 0-14.857 12.571-27.429 27.429-27.429s27.429 12.571 27.429 27.429c0 65.714 53.714 118.857 118.857 118.857 14.857 0 27.429 12.571 27.429 27.429zM746.857 676c0-1.143 0-4-0.571-5.143-120.571-215.429-240-432-360.571-647.429l-28-50.857c-3.429-5.714-9.714-9.143-16-9.143-10.286 0-64.571 33.143-76.571 40-5.714 3.429-9.143 9.143-9.143 16 0 9.143 19.429 40 25.143 49.714-110.857 50.286-204 136-269.714 238.857-7.429 11.429-11.429 25.143-11.429 39.429 0 13.714 4 28 11.429 39.429 113.143 173.714 289.714 289.714 500.571 289.714 34.286 0 69.143-3.429 102.857-9.714l30.857 55.429c3.429 5.714 9.143 9.143 16 9.143 10.286 0 64-33.143 76-40 5.714-3.429 9.143-9.143 9.143-15.429zM768 420.571c0-106.286-65.714-201.143-164.571-238.857l160 286.857c2.857-16 4.571-32 4.571-48zM1024 347.429c0-14.857-4-26.857-11.429-39.429-17.714-29.143-40-57.143-62.286-82.857-112-128.571-266.286-206.857-438.286-206.857l42.286 75.429c166.286 14.286 307.429 115.429 396.571 253.714-42.286 65.714-96.571 123.429-161.143 168l36 64c70.857-47.429 142.286-118.857 186.857-192.571 7.429-12.571 11.429-24.571 11.429-39.429z" />
<glyph unicode="&#xf071;" glyph-name="exclamation-triangle" d="M585.152 73.678v108.584c0 10.287-8.001 18.859-18.288 18.859h-109.727c-10.287 0-18.288-8.572-18.288-18.859v-108.584c0-10.287 8.001-18.859 18.288-18.859h109.727c10.287 0 18.288 8.572 18.288 18.859zM584.009 287.417l10.287 262.317c0 3.43-1.714 8.001-5.715 10.858-3.43 2.857-8.572 6.287-13.716 6.287h-125.729c-5.144 0-10.287-3.43-13.716-6.287-4-2.857-5.715-8.572-5.715-12.001l9.715-261.174c0-7.43 8.572-13.144 19.431-13.144h105.727c10.287 0 18.859 5.715 19.431 13.144zM576.008 821.194l438.909-804.666c12.573-22.289 12.001-49.72-1.143-72.009s-37.147-36.004-62.865-36.004h-877.818c-25.717 0-49.72 13.716-62.865 36.004s-13.716 49.72-1.143 72.009l438.909 804.666c12.573 23.432 37.147 38.29 64.008 38.29s51.435-14.859 64.008-38.29z" />
<glyph unicode="&#xf07a;" glyph-name="shopping-cart" horiz-adv-x="951" d="M365.714 9.143q0-30.286-21.429-51.714t-51.714-21.429-51.714 21.429-21.429 51.714 21.429 51.714 51.714 21.429 51.714-21.429 21.429-51.714zM877.714 9.143q0-30.286-21.429-51.714t-51.714-21.429-51.714 21.429-21.429 51.714 21.429 51.714 51.714 21.429 51.714-21.429 21.429-51.714zM950.857 630.857v-292.571q0-13.714-9.143-24.286t-23.429-12.286l-596.571-69.714q0.571-4 2.571-12.286t3.429-15.143 1.429-12.571q0-9.143-13.714-36.571h525.714q14.857 0 25.714-10.857t10.857-25.714-10.857-25.714-25.714-10.857h-585.143q-14.857 0-25.714 10.857t-10.857 25.714q0 8 6.286 22.571t16.857 34 11.714 21.714l-101.143 470.286h-116.571q-14.857 0-25.714 10.857t-10.857 25.714 10.857 25.714 25.714 10.857h146.286q9.143 0 16.286-3.714t11.429-8.857 7.429-14 4.286-15.143 3.143-16.857 2.571-14.571h686.286q14.857 0 25.714-10.857t10.857-25.714z" />
<glyph unicode="&#xf0c9;" glyph-name="bars" d="M877.714 118.857v-73.143q0-14.857-10.857-25.714t-25.714-10.857h-804.571q-14.857 0-25.714 10.857t-10.857 25.714v73.143q0 14.857 10.857 25.714t25.714 10.857h804.571q14.857 0 25.714-10.857t10.857-25.714zM877.714 411.428v-73.143q0-14.857-10.857-25.714t-25.714-10.857h-804.571q-14.857 0-25.714 10.857t-10.857 25.714v73.143q0 14.857 10.857 25.714t25.714 10.857h804.571q14.857 0 25.714-10.857t10.857-25.714zM877.714 704v-73.143q0-14.857-10.857-25.714t-25.714-10.857h-804.571q-14.857 0-25.714 10.857t-10.857 25.714v73.143q0 14.857 10.857 25.714t25.714 10.857h804.571q14.857 0 25.714-10.857t10.857-25.714z" />
<glyph unicode="&#xf0d9;" glyph-name="caret-left" horiz-adv-x="366" d="M365.714 630.857v-512q0-14.857-10.857-25.714t-25.714-10.857-25.714 10.857l-256 256q-10.857 10.857-10.857 25.714t10.857 25.714l256 256q10.857 10.857 25.714 10.857t25.714-10.857 10.857-25.714z" />
<glyph unicode="&#xf0da;" glyph-name="caret-right" horiz-adv-x="366" d="M329.143 374.857q0-14.857-10.857-25.714l-256-256q-10.857-10.857-25.714-10.857t-25.714 10.857-10.857 25.714v512q0 14.857 10.857 25.714t25.714 10.857 25.714-10.857l256-256q10.857-10.857 10.857-25.714z" />
<glyph unicode="&#xf104;" glyph-name="angle-left" horiz-adv-x="366" d="M358.286 576q0-7.429-5.714-13.143l-224.571-224.571 224.571-224.571q5.714-5.714 5.714-13.143t-5.714-13.143l-28.571-28.571q-5.714-5.714-13.143-5.714t-13.143 5.714l-266.286 266.286q-5.714 5.714-5.714 13.143t5.714 13.143l266.286 266.286q5.714 5.714 13.143 5.714t13.143-5.714l28.571-28.571q5.714-5.714 5.714-13.143z" />
<glyph unicode="&#xf105;" glyph-name="angle-right" horiz-adv-x="366" d="M340 338.286q0-7.429-5.714-13.143l-266.286-266.286q-5.714-5.714-13.143-5.714t-13.143 5.714l-28.571 28.571q-5.714 5.714-5.714 13.143t5.714 13.143l224.571 224.571-224.571 224.571q-5.714 5.714-5.714 13.143t5.714 13.143l28.571 28.571q5.714 5.714 13.143 5.714t13.143-5.714l266.286-266.286q5.714-5.714 5.714-13.143z" />
<glyph unicode="&#xf106;" glyph-name="angle-up" horiz-adv-x="658" d="M614.286 210.286q0-7.429-5.714-13.143l-28.571-28.571q-5.714-5.714-13.143-5.714t-13.143 5.714l-224.571 224.571-224.571-224.571q-5.714-5.714-13.143-5.714t-13.143 5.714l-28.571 28.571q-5.714 5.714-5.714 13.143t5.714 13.143l266.286 266.286q5.714 5.714 13.143 5.714t13.143-5.714l266.286-266.286q5.714-5.714 5.714-13.143z" />
<glyph unicode="&#xf107;" glyph-name="angle-down" horiz-adv-x="658" d="M614.286 457.143q0-7.429-5.714-13.143l-266.286-266.286q-5.714-5.714-13.143-5.714t-13.143 5.714l-266.286 266.286q-5.714 5.714-5.714 13.143t5.714 13.143l28.571 28.571q5.714 5.714 13.143 5.714t13.143-5.714l224.571-224.571 224.571 224.571q5.714 5.714 13.143 5.714t13.143-5.714l28.571-28.571q5.714-5.714 5.714-13.143z" />
<glyph unicode="&#xf110;" glyph-name="spinner" horiz-adv-x="896" d="M283.429 118.857q0-34.286-24.286-58.286t-58-24q-34.286 0-58.286 24t-24 58.286 24 58.286 58.286 24q33.714 0 58-24t24.286-58.286zM530.286 9.143q0-30.286-21.429-51.714t-51.714-21.429-51.714 21.429-21.429 51.714 21.429 51.714 51.714 21.429 51.714-21.429 21.429-51.714zM182.857 374.857q0-37.714-26.857-64.571t-64.571-26.857-64.571 26.857-26.857 64.571 26.857 64.571 64.571 26.857 64.571-26.857 26.857-64.571zM777.143 118.857q0-26.286-18.857-45.143t-45.143-18.857-45.143 18.857-18.857 45.143 18.857 45.143 45.143 18.857 45.143-18.857 18.857-45.143zM301.714 630.857q0-41.714-29.429-71.143t-71.143-29.429-71.143 29.429-29.429 71.143 29.429 71.143 71.143 29.429 71.143-29.429 29.429-71.143zM566.857 740.571q0-45.714-32-77.714t-77.714-32-77.714 32-32 77.714 32 77.714 77.714 32 77.714-32 32-77.714zM877.714 374.857q0-22.857-16-38.857t-38.857-16-38.857 16-16 38.857 16 38.857 38.857 16 38.857-16 16-38.857zM758.857 630.857q0-18.857-13.429-32.286t-32.286-13.429-32.286 13.429-13.429 32.286 13.429 32.286 32.286 13.429 32.286-13.429 13.429-32.286z" />
<glyph unicode="&#xf189;" glyph-name="vk" horiz-adv-x="1097" d="M1095.429 589.714q13.143-36.571-85.714-168-13.714-18.286-37.143-48.571-44.571-57.143-51.429-74.857-9.714-23.429 8-46.286 9.714-12 46.286-46.857h0.571l2.286-2.286q80.571-74.857 109.143-126.286 1.714-2.857 3.714-7.143t4-15.143-0.286-19.429-14.286-15.714-33.714-7.143l-146.286-2.286q-13.714-2.857-32 2.857t-29.714 12.571l-11.429 6.857q-17.143 12-40 36.571t-39.143 44.286-34.857 33.143-32.286 8.857q-1.714-0.571-4.571-2t-9.714-8.286-12.286-16.857-9.714-29.714-3.714-44.286q0-8.571-2-15.714t-4.286-10.571l-2.286-2.857q-10.286-10.857-30.286-12.571h-65.714q-40.571-2.286-83.429 9.429t-75.143 30.286-58.857 37.714-40.286 32.857l-14.286 13.714q-5.714 5.714-15.714 17.143t-40.857 52-60.571 86.286-70 120.571-74.571 155.429q-3.429 9.143-3.429 15.429t1.714 9.143l2.286 3.429q8.571 10.857 32.571 10.857l156.571 1.143q6.857-1.143 13.143-3.714t9.143-4.857l2.857-1.714q9.143-6.286 13.714-18.286 11.429-28.571 26.286-59.143t23.429-46.571l9.143-16.571q16.571-34.286 32-59.429t27.714-39.143 23.714-22 19.429-8 15.429 2.857q1.143 0.571 2.857 2.857t6.857 12.571 7.714 26.857 5.429 46.286 0 71.429q-1.143 22.857-5.143 41.714t-8 26.286l-3.429 6.857q-14.286 19.429-48.571 24.571-7.429 1.143 2.857 13.714 9.714 10.857 21.714 17.143 30.286 14.857 136.571 13.714 46.857-0.571 77.143-7.429 11.429-2.857 19.143-7.714t11.714-13.714 6-18.286 2-26-0.571-31.429-1.429-40.286-0.857-47.143q0-6.286-0.571-24t-0.286-27.429 2-23.143 6.571-22.286 12.857-14q4.571-1.143 9.714-2.286t14.857 6.286 21.714 19.714 29.714 38.286 38.857 61.429q34.286 59.429 61.143 128.571 2.286 5.714 5.714 10t6.286 6l2.286 1.714 2.857 1.429t7.429 1.714 11.429 0.286l164.571 1.143q22.286 2.857 36.571-1.429t17.714-9.429z" />
<glyph unicode="&#xf1d8;" glyph-name="telegram" horiz-adv-x="1025" d="M1008 889.714c12-8.571 17.714-22.286 15.429-36.571l-146.286-877.714c-1.714-10.857-8.571-20-18.286-25.714-5.143-2.857-11.429-4.571-17.714-4.571-4.571 0-9.143 1.143-13.714 2.857l-258.857 105.714-138.286-168.571c-6.857-8.571-17.143-13.143-28-13.143-4 0-8.571 0.571-12.571 2.286-14.286 5.143-24 18.857-24 34.286v199.429l493.714 605.143-610.857-528.571-225.714 92.571c-13.143 5.143-21.714 17.143-22.857 31.429-0.571 13.714 6.286 26.857 18.286 33.714l950.857 548.571c5.714 3.429 12 5.143 18.286 5.143 7.429 0 14.857-2.286 20.571-6.286z" />
<glyph unicode="&#xf232;" glyph-name="whatsapp" horiz-adv-x="878" d="M562.857 339.429c9.714 0 102.857-48.571 106.857-55.429 1.143-2.857 1.143-6.286 1.143-8.571 0-14.286-4.571-30.286-9.714-43.429-13.143-32-66.286-52.571-98.857-52.571-27.429 0-84 24-108.571 35.429-81.714 37.143-132.571 100.571-181.714 173.143-21.714 32-41.143 71.429-40.571 110.857v4.571c1.143 37.714 14.857 64.571 42.286 90.286 8.571 8 17.714 12.571 29.714 12.571 6.857 0 13.714-1.714 21.143-1.714 15.429 0 18.286-4.571 24-19.429 4-9.714 33.143-87.429 33.143-93.143 0-21.714-39.429-46.286-39.429-59.429 0-2.857 1.143-5.714 2.857-8.571 12.571-26.857 36.571-57.714 58.286-78.286 26.286-25.143 54.286-41.714 86.286-57.714 4-2.286 8-4 12.571-4 17.143 0 45.714 55.429 60.571 55.429zM446.857 36.571c197.714 0 358.857 161.143 358.857 358.857s-161.143 358.857-358.857 358.857-358.857-161.143-358.857-358.857c0-75.429 24-149.143 68.571-210.286l-45.143-133.143 138.286 44c58.286-38.286 127.429-59.429 197.143-59.429zM446.857 826.286c237.714 0 430.857-193.143 430.857-430.857s-193.143-430.857-430.857-430.857c-72.571 0-144.571 18.286-208.571 53.714l-238.286-76.571 77.714 231.429c-40.571 66.857-61.714 144-61.714 222.286 0 237.714 193.143 430.857 430.857 430.857z" />
<glyph unicode="&#xf2ac;" glyph-name="snapchat" d="M521.138 822.851c102.857 1.143 188-56.571 230.857-149.143 13.143-28 15.429-71.429 15.429-102.286 0-36.571-2.857-72.571-5.143-109.143 4.571-2.286 10.857-4 16-4 20.571 0 37.714 15.429 58.286 15.429 19.429 0 47.429-13.714 47.429-36.571 0-54.857-114.857-44.571-114.857-92.571 0-8.571 3.429-16.571 6.857-24.571 27.429-60 79.429-117.714 141.143-143.429 14.857-6.286 29.714-9.714 45.714-13.143 10.286-2.286 16-9.714 16-20 0-38.857-98.857-54.857-125.143-58.857-11.429-17.714-2.857-59.429-33.143-59.429-23.429 0-46.857 7.429-72 7.429-12 0-24-0.571-35.429-2.857-68-11.429-90.857-84.571-202.286-84.571-107.429 0-133.143 73.143-199.429 84.571-12 2.286-24 2.857-36 2.857-25.714 0-50.286-8.571-70.857-8.571-32 0-22.286 42.286-34.286 60.571-26.286 4-125.143 20-125.143 58.857 0 10.286 5.714 17.714 16 20 16 3.429 30.857 6.857 45.714 13.143 61.143 25.143 114.286 83.429 141.143 143.429 3.429 8 6.857 16 6.857 24.571 0 48-115.429 38.857-115.429 92 0 22.286 26.286 36.571 46.286 36.571 17.714 0 35.429-14.857 57.714-14.857 6.286 0 12.571 1.143 18.286 4-2.286 36-5.143 72-5.143 108.571 0 30.857 2.286 74.857 15.429 102.857 50.286 108.571 135.429 148 249.143 149.143z" />
</font>
</defs>
</svg>
